PDA

Archiv verlassen und diese Seite im Standarddesign anzeigen : When Animals Dream 2014 German 1080p BluRay x264 - LeetHD



haloha
05.01.15, 17:12
When.Animals.Dream.2014.German.1080p.BluRay.x264-LeetHD

[Link nur für registrierte und freigeschaltete Benutzer sichtbar]

Marie (Sonia Suhl) ist eine schüchterne Teenagerin. Sie lebt mit ihren Eltern in einem kleinen Fischerdorf auf einer Insel vor der abgelegenen Nordküste Dänemarks. Der einzige Mensch, dem sie vertraut, ist Daniel (Jakob Oftebro), er fühlt sich zu ihrer verborgenen stürmischen Natur hingezogen. Da Maries Mutter Mor (Sonja Richter) schwer krank ist und im Rollstuhl sitzt, kümmert sich hauptsächlich ihr Vater, Far (Lars Mikkelsen), um das Wohl der Familie. Um ihn zu entlasten, nimmt die 16-Jährige einen Job in der örtlichen Fischfabrik an. Doch plötzlich macht sie eine folgenreiche Entdeckung: Merkwürdige Dinge scheinen mit ihrem Körper zu passieren, Haare wachsen an Stellen, wo vorher keine waren - und Marie merkt, dass sie nach und nach die Kontrolle über sich zu verlieren droht. In ihr erwacht eine Macht, die nicht gebändigt werden kann. Dann ereignen sich mehrere mysteriöse Todesfälle auf der Insel. Langsam begreift Marie, dass Far ihr etwas über die Krankheit der Mutter und die Familiengeschichte verschweigt.

iNFO


General
Unique ID : 253083608367790128091163799165858463956 (0xBE6621464C3F32DFB033C34A760BC0D4)
Complete name : lhd-wad-1080p.mkv
Format : Matroska
Format version : Version 2
File size : 6.08 GiB
Duration : 1h 24mn
Overall bit rate : 10.3 Mbps
Encoded date : UTC 2015-01-04 11:31:09
Writing application : mkvmerge v4.5.0 ('Speed of Light') gebaut am Feb 1 2011 02:10:32
Writing library : libebml v1.2.0 + libmatroska v1.1.0

Video
ID : 1
Format : AVC
Format/Info : Advanced Video Codec
Format profile : [email protected]
Format settings, CABAC : Yes
Format settings, ReFrames : 4 frames
Codec ID : V_MPEG4/ISO/AVC
Duration : 1h 24mn
Bit rate : 8 755 Kbps
Width : 1 920 pixels
Height : 808 pixels
Display aspect ratio : 2.40:1
Frame rate mode : Constant
Frame rate : 23.976 fps
Color space : YUV
Chroma subsampling : 4:2:0
Bit depth : 8 bits
Scan type : Progressive
Bits/(Pixel*Frame) : 0.235
Stream size : 5.06 GiB (83%)
Writing library : x264 core 140 r2377 1ca7bb9
Encoding settings : cabac=1 / ref=5 / deblock=1:-1:-1 / analyse=0x3:0x133 / me=umh / subme=7 / psy=1 / psy_rd=1.00:0.15 / mixed_ref=1 / me_range=16 / chroma_me=1 / trellis=2 / 8x8dct=1 / cqm=0 / deadzone=21,11 / fast_pskip=1 / chroma_qp_offset=-3 / threads=12 / lookahead_threads=2 / sliced_threads=0 / nr=0 / decimate=1 / interlaced=0 / bluray_compat=0 / constrained_intra=0 / bframes=3 / b_pyramid=1 / b_adapt=2 / b_bias=0 / direct=1 / weightb=1 / open_gop=0 / weightp=1 / keyint=240 / keyint_min=23 / scenecut=40 / intra_refresh=0 / rc_lookahead=30 / rc=2pass / mbtree=1 / bitrate=8755 / ratetol=1.0 / qcomp=0.60 / qpmin=0 / qpmax=69 / qpstep=4 / cplxblur=20.0 / qblur=0.5 / ip_ratio=1.40 / aq=1:1.00
Language : English
Default : Yes
Forced : No

Audio
ID : 2
Format : DTS
Format/Info : Digital Theater Systems
Mode : 16
Format settings, Endianness : Big
Codec ID : A_DTS
Duration : 1h 24mn
Bit rate mode : Constant
Bit rate : 1 509 Kbps
Channel(s) : 6 channels
Channel positions : Front: L C R, Side: L R, LFE
Sampling rate : 48.0 KHz
Bit depth : 24 bits
Compression mode : Lossy
Delay relative to video : 11ms
Stream size : 915 MiB (15%)
Title : German
Language : German
Default : Yes
Forced : No

Text
ID : 3
Format : VobSub
Muxing mode : zlib
Codec ID : S_VOBSUB
Codec ID/Info : The same subtitle format used on DVDs
Title : German complete
Language : German
Default : No
Forced : No

Menu
00:00:00.000 : en:00:00:00.000
00:12:05.975 : en:00:12:05.975
00:23:13.934 : en:00:23:13.934
00:34:21.268 : en:00:34:21.268
00:44:58.654 : en:00:44:58.654
00:55:22.361 : en:00:55:22.361
01:06:46.002 : en:01:06:46.002
01:20:09.388 : en:01:20:09.388

Genre: Drama
Sprache/n: Deutsch
Laufzeit: 84 Minuten
VideoStream: BD
AudioStream: DTS 5.1
VideoCodec: MPEG-4 H.264 / AVC
Format: rar / mkv
Größe: 6222,32 MB | Parts: 13 | Partsize: 500 MB

Download
bei Share-online.biz
[Link nur für registrierte und freigeschaltete Benutzer sichtbar]
Linkcrypt.ws ([Link nur für registrierte und freigeschaltete Benutzer sichtbar])
bei Uploaded.net
[Link nur für registrierte und freigeschaltete Benutzer sichtbar]
Linkcrypt.ws ([Link nur für registrierte und freigeschaltete Benutzer sichtbar])
Einmal ohne Passwort gepackt, Mirror sind untereinander kompatibel

falkefalke
07.01.15, 14:42
When.Animals.Dream.2014.German.1080p.BluRay.x264-LeetHD


[Link nur für registrierte und freigeschaltete Benutzer sichtbar]

Titel: When Animals Dream
Genre: Horror
Laufzeit: 84 Min.
Sprache/n: Deutsch
Video Stream: BD
Audio Stream: DTS 5.1
Video Codec: MPEG-4 H.264 / AVC

Marie ist ein schüchterner Teenager, der gemeinsam mit ihren Eltern in einem kleinen Fischerdorf an der abgelegenen dänischen Nordküste lebt. Sie vertraut niemandem, außer Daniel, einem jungen Mann, der sich zu ihrer ungestümen Natur hingezogen fühlt. Als Marie bemerkt, dass sich ihr Körper zunehmend verändert, beginnt sie nach Antworten in der totgeschwiegenen Familiengeschichte zu suchen. Ihr Vater versucht Marie vor den wachsamen wie angstvollen Blicken der übrigen Dorfbewohner zu beschützen, aber in der jungen Frau erwacht eine Macht, die nicht gebändigt werden kann. Mysteriöse Todesfälle häufen sich, die Dorfbewohner werden nervös, mit Ausnahme von Daniel, der ihr ans Ende der Nacht folgen wird.


nfo:


General
Unique ID : 253083608367790128091163799165858463956 (0xBE6621464C3F32DFB033C34A760BC0D4)
Complete name : lhd-wad-1080p.mkv
Format : Matroska
Format version : Version 2
File size : 6.08 GiB
Duration : 1h 24mn
Overall bit rate : 10.3 Mbps
Encoded date : UTC 2015-01-04 11:31:09
Writing application : mkvmerge v4.5.0 ('Speed of Light') gebaut am Feb 1 2011 02:10:32
Writing library : libebml v1.2.0 + libmatroska v1.1.0

Video
ID : 1
Format : AVC
Format/Info : Advanced Video Codec
Format profile : [email protected]
Format settings, CABAC : Yes
Format settings, ReFrames : 4 frames
Codec ID : V_MPEG4/ISO/AVC
Duration : 1h 24mn
Bit rate : 8 755 Kbps
Width : 1 920 pixels
Height : 808 pixels
Display aspect ratio : 2.40:1
Frame rate mode : Constant
Frame rate : 23.976 fps
Color space : YUV
Chroma subsampling : 4:2:0
Bit depth : 8 bits
Scan type : Progressive
Bits/(Pixel*Frame) : 0.235
Stream size : 5.06 GiB (83%)
Writing library : x264 core 140 r2377 1ca7bb9
Encoding settings : cabac=1 / ref=5 / deblock=1:-1:-1 / analyse=0x3:0x133 / me=umh / subme=7 / psy=1 / psy_rd=1.00:0.15 / mixed_ref=1 / me_range=16 / chroma_me=1 / trellis=2 / 8x8dct=1 / cqm=0 / deadzone=21,11 / fast_pskip=1 / chroma_qp_offset=-3 / threads=12 / lookahead_threads=2 / sliced_threads=0 / nr=0 / decimate=1 / interlaced=0 / bluray_compat=0 / constrained_intra=0 / bframes=3 / b_pyramid=1 / b_adapt=2 / b_bias=0 / direct=1 / weightb=1 / open_gop=0 / weightp=1 / keyint=240 / keyint_min=23 / scenecut=40 / intra_refresh=0 / rc_lookahead=30 / rc=2pass / mbtree=1 / bitrate=8755 / ratetol=1.0 / qcomp=0.60 / qpmin=0 / qpmax=69 / qpstep=4 / cplxblur=20.0 / qblur=0.5 / ip_ratio=1.40 / aq=1:1.00
Language : English
Default : Yes
Forced : No

Audio
ID : 2
Format : DTS
Format/Info : Digital Theater Systems
Mode : 16
Format settings, Endianness : Big
Codec ID : A_DTS
Duration : 1h 24mn
Bit rate mode : Constant
Bit rate : 1 509 Kbps
Channel(s) : 6 channels
Channel positions : Front: L C R, Side: L R, LFE
Sampling rate : 48.0 KHz
Bit depth : 24 bits
Compression mode : Lossy
Delay relative to video : 11ms
Stream size : 915 MiB (15%)
Title : German
Language : German
Default : Yes
Forced : No

Text
ID : 3
Format : VobSub
Muxing mode : zlib
Codec ID : S_VOBSUB
Codec ID/Info : The same subtitle format used on DVDs
Title : German complete
Language : German
Default : No
Forced : No

Menu
00:00:00.000 : en:00:00:00.000
00:12:05.975 : en:00:12:05.975
00:23:13.934 : en:00:23:13.934
00:34:21.268 : en:00:34:21.268
00:44:58.654 : en:00:44:58.654
00:55:22.361 : en:00:55:22.361
01:06:46.002 : en:01:06:46.002
01:20:09.388 : en:01:20:09.388


uploaded.net / share-online.biz / uploadable.ch / oboom.com

[Link nur für registrierte und freigeschaltete Benutzer sichtbar]


Total Size: 6222 MB (12 Parts)

Uploaded.net
[Link nur für registrierte und freigeschaltete Benutzer sichtbar]
Download ([Link nur für registrierte und freigeschaltete Benutzer sichtbar])

Share-online.biz
[Link nur für registrierte und freigeschaltete Benutzer sichtbar]
Download ([Link nur für registrierte und freigeschaltete Benutzer sichtbar])

Uploadable.ch
[Link nur für registrierte und freigeschaltete Benutzer sichtbar]
Download ([Link nur für registrierte und freigeschaltete Benutzer sichtbar])

Oboom.com
[Link nur für registrierte und freigeschaltete Benutzer sichtbar]
Download ([Link nur für registrierte und freigeschaltete Benutzer sichtbar])

r4no
04.11.17, 22:20
When.Animals.Dream.2014.German.1080p.BluRay.x264-LeetHD

Marie ist ein schüchterner Teenager, der gemeinsam mit ihren Eltern in einem kleinen Fischerdorf an der abgelegenen dänischen Nordküste lebt. Sie vertraut niemandem, außer Daniel, einem jungen Mann, der sich zu ihrer ungestümen Natur hingezogen fühlt. Als Marie bemerkt, dass sich ihr Körper zunehmend verändert, beginnt sie nach Antworten in der totgeschwiegenen Familiengeschichte zu suchen. Ihr Vater versucht Marie vor den wachsamen wie angstvollen Blicken der übrigen Dorfbewohner zu beschützen, aber in der jungen Frau erwacht eine Macht, die nicht gebändigt werden kann. Mysteriöse Todesfälle häufen sich, die Dorfbewohner werden nervös, mit Ausnahme von Daniel, der ihr ans Ende der Nacht folgen wird.<blockquote>Sprache/n: Deutsch
Video Stream: BD
Audio Stream: DTS 5.1
Video Codec: MPEG-4 H.264 / AVC

</blockquote>

[Link nur für registrierte und freigeschaltete Benutzer sichtbar]

Genre: Drama, Fantasy, Horror
Quelle: 1080p
Format: MKV
Auflösung: 1920x808 Pixel
Bitrate: German DTSkb/s
Größe: 6222MB
RAR-Dateien: 42
Länge: 84 Minuten
Sprache: Deutsch

IMDB-Link: [Link nur für registrierte und freigeschaltete Benutzer sichtbar]

Uploaded.net
[Link nur für registrierte und freigeschaltete Benutzer sichtbar]
Share-Online.biz
[Link nur für registrierte und freigeschaltete Benutzer sichtbar]
Oboom.com
[Link nur für registrierte und freigeschaltete Benutzer sichtbar]

Files sind untereinander kompatibel und SFV gecheckt!