PDA

Archiv verlassen und diese Seite im Standarddesign anzeigen : Maze Runner 3 Die Auserwaehlten in der Todeszone 2017 German AC3MD DL 1080p AMZ Web x264 - iND



Jennifer_Jareau
10.04.18, 15:20
Maze Runner 3 Die Auserwaehlten in der Todeszone 2017 German AC3MD DL 1080p AMZ Web x264 - iND

[Link nur für registrierte und freigeschaltete Benutzer sichtbar]


Im epischen Finale der Maze Runner Saga führt Thomas seine Gruppe der entflohenen Gladers auf ihre letzte und gefährlichste Mission. Um ihre Freunde zu retten, müssen sie in die legendäre Last City einbrechen, ein WCKD-kontrolliertes Labyrinth, das sich als das tödlichste von allen entpuppt. Jeder, der es lebendig heraus schafft, wird die Antworten auf die Fragen finden, nach denen die Gladers suchen, seit sie das erste Mal im Labyrinth ankamen.


Genre: Science Fiction
IMDB Infos: Maze Runner 3 - Die Auserwaehlten in der Todeszone ([Link nur für registrierte und freigeschaltete Benutzer sichtbar])
Ton: Englisch/Deutsch (Dolby Digital 2.0 (MicDubbed))
Untertitel: -
Video: WebHD (MPEG-4 H.264 / AVC)
Sample: [Link nur für registrierte und freigeschaltete Benutzer sichtbar]
Partgröße: 1023 MB
Parts: 7 Stück
Gesamtgröße: 6.79 GB


NFO:
Video: 1920 x 800 @ 5 836 kb/s
Audio German: AC-3 224 kb/s @ 2 channels [MiC noGRP]
Audio English: E-AC-3 640 kb/s @ 6 channels

Notes: AMAZON RIP mit etwas h herer Bitrate als die iTUNES Source, ebenfalls ohne ASiA Subsà

Share-online.biz [Link nur für registrierte und freigeschaltete Benutzer sichtbar]
Hier geht es zum Download & bitte auch das - Bedanken - klicken nicht vergessen! ('[Link nur für registrierte und freigeschaltete Benutzer sichtbar]')

Uploaded.net [Link nur für registrierte und freigeschaltete Benutzer sichtbar]
Hier geht es zum Download & bitte auch das - Bedanken - klicken nicht vergessen! ('[Link nur für registrierte und freigeschaltete Benutzer sichtbar]')

xzippyx
11.04.18, 22:56
[Link nur für registrierte und freigeschaltete Benutzer sichtbar]

Maze Runner 3 Die Auserwaehlten in der Todeszone 2017 German AC3MD DL 1080p AMZ Web x264 - iND


Thomas (Dylan O'Brien), seine Freunde und die Widerstandskämpfer von The Right Arm haben sich der mächtigen Organisation WCKD gestellt und wissen nun, warum die „Auserwählten“ so hartnäckig verfolgt werden – in ihnen steckt der Schlüssel zu einem Heilmittel für ein Virus, das "der Brand" genannt wird und dem der Großteil der Menschheit bereits zum Opfer gefallen ist. Nach einem Kampf sind einige von Thomas‘ Freunden in die Hände der Organisation und deren skrupellosen Leiters Janson (Aidan Gillen) gefallen – doch Thomas kann nicht akzeptieren, dass sie zum Wohle anderer ihr Leben lassen sollen, und auch mit der zur Gegenseite gewechselten Teresa (Kaya Scodelario) hat er noch eine Rechnung offen. Mit seinen verblieben Mitstreitern macht sich Thomas auf den Weg in die Letzte Stadt, wo WCKD seinen Hauptsitz hat – und dieser Weg führt sie ausgerechnet dorthin, wo alles begonnen hat: ins gefährliche Labyrinth…

| Format: MkV/x264 | Größe: 6.73 GB | Laufzeit: 142 Minuten |

M-ID: F0044 = Crypter Passwort

Hoster: zippyshare.com, share-online.biz

[Link nur für registrierte und freigeschaltete Benutzer sichtbar]

[Link nur für registrierte und freigeschaltete Benutzer sichtbar] ([Link nur für registrierte und freigeschaltete Benutzer sichtbar])
- zippyshare.com -
- Ohne Account mit FullSpeed laden -
- Reups jederzeit möglich -

[Link nur für registrierte und freigeschaltete Benutzer sichtbar]

[Link nur für registrierte und freigeschaltete Benutzer sichtbar]

GEFÄLLT MIR DRÜCKEN NICHT VERGESSEN

NFO / MedienInfo


NfO :

Format : Matroska
Format version : Version 4 / Version 2
File size : 6.73 GiB
Duration : 2 h 23 min
Overall bit rate mode : Variable
Overall bit rate : 6 701 kb/s
Encoded date : UTC 2018-04-10 08:15:33
Writing application : mkvmerge v20.0.0 ('I Am The Sun') 64-bit
Writing library : libebml v1.3.5 + libmatroska v1.4.8

Video
ID : 1
Format : AVC
Format/Info : Advanced Video Codec
Format profile : [email protected]
Format settings, CABAC : Yes
Format settings, ReFrames : 4 frames
Codec ID : V_MPEG4/ISO/AVC
Duration : 2 h 23 min
Bit rate mode : Variable
Bit rate : 5 836 kb/s
Maximum bit rate : 15.0 Mb/s
Width : 1 920 pixels
Height : 800 pixels
Display aspect ratio : 2.40:1
Frame rate mode : Constant
Frame rate : 23.976 (24000/1001) FPS
Color space : YUV
Chroma subsampling : 4:2:0
Bit depth : 8 bits
Scan type : Progressive
Bits/(Pixel*Frame) : 0.158
Stream size : 5.86 GiB (87%)
Default : Yes
Forced : No
Color range : Limited
Color primaries : BT.709
Transfer characteristics : BT.709
Matrix coefficients : BT.709

Audio #1
ID : 2
Format : AC-3
Format/Info : Audio Coding 3
Mode extension : CM (complete main)
Format settings, Endianness : Big
Codec ID : A_AC3
Duration : 2 h 22 min
Bit rate mode : Constant
Bit rate : 224 kb/s
Channel(s) : 2 channels
Channel positions : Front: L R
Sampling rate : 48.0 kHz
Frame rate : 31.250 FPS (1536 spf)
Bit depth : 16 bits
Compression mode : Lossy
Stream size : 229 MiB (3%)
Language : German
Default : Yes
Forced : No

Audio #2
ID : 3
Format : E-AC-3
Format/Info : Enhanced Audio Coding 3
Format settings, Endianness : Big
Codec ID : A_EAC3
Duration : 2 h 23 min
Bit rate mode : Constant
Bit rate : 640 kb/s
Channel(s) : 6 channels
Channel positions : Front: L C R, Side: L R, LFE
Sampling rate : 48.0 kHz
Frame rate : 187.500 FPS (256 spf)
Compression mode : Lossy
Stream size : 658 MiB (10%)
Language : English
Default : No
Forced : No

Text
ID : 4
Format : UTF-8
Codec ID : S_TEXT/UTF8
Codec ID/Info : UTF-8 Plain Text
Duration : 2 h 20 min
Bit rate : 38 b/s
Count of elements : 1689
Stream size : 39.5 KiB (0%)
Language : English
Default : No
Forced : No