PDA

Archiv verlassen und diese Seite im Standarddesign anzeigen : Maze Runner 2 Die Auserwaehlten in der Brandwueste 2015 German DTS DL 720p BluRay x264 - MULTiPLEX



Checcker
31.01.18, 13:11
Maze Runner 2 Die Auserwaehlten in der Brandwueste
Maze.Runner.2.Die.Auserwaehlten.in.der.Brandwueste .2015.German.DTS.DL.720p.BluRay.x264-MULTiPLEX

[Link nur für registrierte und freigeschaltete Benutzer sichtbar]


.: Details:.

Genre: Action
Laufzeit: 125 Min.
Sprache/n: Deutsch [Link nur für registrierte und freigeschaltete Benutzer sichtbar] English [Link nur für registrierte und freigeschaltete Benutzer sichtbar]
Audio Stream: DTS 5.1
Video Stream: BD
Video Codec: MPEG-4 H.264 / AVC
IMDb: 0.0/10 ([Link nur für registrierte und freigeschaltete Benutzer sichtbar])
Trailer: Youtube ([Link nur für registrierte und freigeschaltete Benutzer sichtbar])


.: Beschreibung :.

Im nächsten Kapitel der epischen "Maze Runner" Saga müssen sich Thomas (Dylan O'Brien) und seine Mitstreiter ihrer größten Herausforderung stellen: Sie versuchen herauszufinden, wer hinter der mächtigen und geheimnisvollen Organisation ANGST steckt. Ihre Reise führt sie in die Brandwüste, eine trostlose Landschaft, in der sie sich erneut unglaublichen Gefahren stellen müssen. Sie verbünden sich mit Widerstandskämpfern, um die schockierenden Pläne der mächtigen Institution ANGST zu enthüllen und das Rätsel, um die Brandwüste und warum sie hier sind zu lösen.

Fortsetzung der dystopischen Jugendbuch-Verfilmung, in der Thomas und seine Begleiter einer zweifelhaften Organisation entkommen und in einer erbarmungslosen Wüste überleben müssen.


.: NFO :.


Release Date : 29.01.2018
Cine Date : 24.09.2015
Genre : Action, Sci-Fi, Thriller
Runtime : 02:11:42

Audio : German DTS 5.1 768 Kbps
Audio2 : English DTS-ES 5.1 1509 Kbps
Video : 1280x536 23.976 fps 4516 Kbps
Subs : German & English Full

http //[Link nur für registrierte und freigeschaltete Benutzer sichtbar]
.: Download :.

Größe: 6431 MB | Part/s: 7 Datei/en

[Link nur für registrierte und freigeschaltete Benutzer sichtbar]
[Link nur für registrierte und freigeschaltete Benutzer sichtbar] Online Status
Download über Uploaded.net ([Link nur für registrierte und freigeschaltete Benutzer sichtbar])

[Link nur für registrierte und freigeschaltete Benutzer sichtbar]
[Link nur für registrierte und freigeschaltete Benutzer sichtbar] Online Status
Download über Share-Online.biz ([Link nur für registrierte und freigeschaltete Benutzer sichtbar])

[Link nur für registrierte und freigeschaltete Benutzer sichtbar]
[Link nur für registrierte und freigeschaltete Benutzer sichtbar] Online Status
Download über Rapidgator.net ([Link nur für registrierte und freigeschaltete Benutzer sichtbar])


.: Alle Dateien untereinander kompatibel :.
.: Benutzerfreundliche 1 GB Parts :.
.: Kein Passwort :.

Ghoststage
09.02.18, 02:32
[Link nur für registrierte und freigeschaltete Benutzer sichtbar]
Releasename
Maze.Runner.2.Die.Auserwaehlten.in.der.Brandwueste .2015.German.DTS.DL.720p.BluRay.x264-MULTiPLEX
[Link nur für registrierte und freigeschaltete Benutzer sichtbar]
[Link nur für registrierte und freigeschaltete Benutzer sichtbar]
Titel: Maze Runner 2 Die Auserwaehlten in der Brandwueste [Link nur für registrierte und freigeschaltete Benutzer sichtbar] Director: Wes Ball [Link nur für registrierte und freigeschaltete Benutzer sichtbar] Genre: Action
Laufzeit: 131 Min. [Link nur für registrierte und freigeschaltete Benutzer sichtbar] Sprache/n: Deutsch [Link nur für registrierte und freigeschaltete Benutzer sichtbar] Englisch [Link nur für registrierte und freigeschaltete Benutzer sichtbar]
Video Stream: BD [Link nur für registrierte und freigeschaltete Benutzer sichtbar] Video Format: MPEG-4 H.264 / AVC
Audio Stream: DTS 5.1
Hoster: [Link nur für registrierte und freigeschaltete Benutzer sichtbar] [Link nur für registrierte und freigeschaltete Benutzer sichtbar]
Größe: 6431,35 MB [Link nur für registrierte und freigeschaltete Benutzer sichtbar] Part size: 1000 MB [Link nur für registrierte und freigeschaltete Benutzer sichtbar] Parts: 7 Dateien
[Link nur für registrierte und freigeschaltete Benutzer sichtbar]

[Link nur für registrierte und freigeschaltete Benutzer sichtbar]
[Link nur für registrierte und freigeschaltete Benutzer sichtbar]
[Link nur für registrierte und freigeschaltete Benutzer sichtbar]
Im nächsten Kapitel der epischen "Maze Runner" Saga müssen sich Thomas (Dylan O'Brien) und seine Mitstreiter ihrer größten Herausforderung stellen: Sie versuchen herauszufinden, wer hinter der mächtigen und geheimnisvollen Organisation ANGST steckt. Ihre Reise führt sie in die Brandwüste, eine trostlose Landschaft, in der sie sich erneut unglaublichen Gefahren stellen müssen. Sie verbünden sich mit Widerstandskämpfern, um die schockierenden Pläne der mächtigen Institution ANGST zu enthüllen und das Rätsel, um die Brandwüste und warum sie hier sind zu lösen.

Fortsetzung der dystopischen Jugendbuch-Verfilmung, in der Thomas und seine Begleiter einer zweifelhaften Organisation entkommen und in einer erbarmungslosen Wüste überleben müssen.
[Link nur für registrierte und freigeschaltete Benutzer sichtbar]
[Link nur für registrierte und freigeschaltete Benutzer sichtbar]
[Link nur für registrierte und freigeschaltete Benutzer sichtbar]

Duration : 2 h 11 min
Overall bit rate : 6 801 kb/s
Encoded date : UTC 2018-01-29 08:30:45
Writing application : mkvmerge v8.3.0 ('Over the Horizon ) 64bit
Writing library : libebml v1.3.1 + libmatroska v1.4.2

Video
ID : 1
Format : AVC
Format/Info : Advanced Video Codec
Format profile : [email protected].1
Format settings : CABAC / 5 Ref Frames
Format settings, CABAC : Yes
Format settings, ReFrames : 5 frames
Codec ID : V_MPEG4/ISO/AVC
Duration : 2 h 11 min
Bit rate : 4 516 kb/s
Width : 1 280 pixels
Height : 536 pixels
Display aspect ratio : 2.40:1
Frame rate mode : Constant
Frame rate : 23.976 (24000/1001) FPS
Color space : YUV
Chroma subsampling : 4:2:0
Bit depth : 8 bits
Scan type : Progressive
Bits/(Pixel*Frame : 0.275
Stream size : 4.15 GiB (66%)
Writing library : x264 core 155 r2901 7d0ff22
Encoding settings : cabac=1 / ref=5 / deblock=1:-3:-3 / analyse=0x3:0x113 / me=umh / subme=11 / psy=1 / psy_rd=1.00:0.15 / mixed_ref=1 / me_range=16 / chroma_me=1 / trellis=2 / 8x8dct=1 / cqm=0 / deadzone=21,11 / fast_pskip=0 / chroma_qp_offset=-3 / threads=17 / lookahead_threads=1 / sliced_threads=0 / nr=0 / decimate=1 / interlaced=0 / bluray_compat=0 / constrained_intra=0 / bframes=5 / b_pyramid=2 / b_adapt=2 / b_bias=0 / direct=3 / weightb=1 / open_gop=0 / weightp=2 / keyint=250 / keyint_min=23 / scenecut=40 / intra_refresh=0 / rc_lookahead=40 / rc=crf / mbtree=1 / crf=14.0 / qcomp=0.60 / qpmin=10 / qpmax=69 / qpstep=4 / ip_ratio=1.40 / aq=1:1.00
Language : English
Default : Yes
Forced : No

Audio #1
ID : 2
Format : DTS
Format/Info : Digital Theater Systems
Codec ID : A_DTS
Duration : 2 h 11 min
Bit rate mode : Constant
Bit rate : 768 kb/s
Channel(s : 6 channels
Channel positions : Front: L C R, Side: L R, LFE
Sampling rate : 48.0 kHz
Frame rate : 93.750 FPS (512 SPF)
Bit depth : 24 bits
Compression mode : Lossy
Stream size : 724 MiB (11%)
Language : German
Default : Yes
Forced : Yes

Audio #2
ID : 3
Format : DTS
Format/Info : Digital Theater Systems
Format profile : ES Matrix / Core
Codec ID : A_DTS
Duration : 2 h 11 min
Bit rate mode : Constant
Bit rate : 1 509 kb/s
Channel(s : 7 channels / 6 channels
Channel positions : Front: L C R, Side: L R, Back: C, LFE / Front: L C R, Side: L R, LFE
Sampling rate : 48.0 kHz
Frame rate : 93.750 FPS (512 SPF)
Bit depth : 24 bits
Compression mode : Lossy
Stream size : 1.39 GiB (22%)
Language : English
Default : No
Forced : No

Text #1
ID : 4
Format : VobSub
Muxing mode : zlib
Codec ID : S_VOBSUB
Codec ID/Info : Picture based subtitle format used on DVDs
Duration : 2 h 10 min
Bit rate : 2 365 b/s
Count of elements : 1414
Stream size : 2.20 MiB (0%)
Title : ger regular
Language : German
Default : No
Forced : No

Text #2
ID : 5
Format : VobSub
Muxing mode : zlib
Codec ID : S_VOBSUB
Codec ID/Info : Picture based subtitle format used on DVDs
Duration : 2 h 2 min
Bit rate : 2 714 b/s
Count of elements : 1485
Stream size : 2.38 MiB (0%)
Title : eng regular
Language : English
Default : No
Forced : No

Menu
00:00:00.000 : en:00:00:00.000
00:04:05.120 : en:00:04:05.120
00:05:59.818 : en:00:05:59.818
00:09:08.798 : en:00:09:08.798
00:11:55.840 : en:00:11:55.840
00:17:32.677 : en:00:17:32.677
00:23:21.191 : en:00:23:21.191
00:27:36.029 : en:00:27:36.029
00:33:10.238 : en:00:33:10.238
00:37:06.683 : en:00:37:06.683
00:41:30.988 : en:00:41:30.988
00:45:47.370 : en:00:45:47.370
00:51:57.781 : en:00:51:57.781
00:56:01.775 : en:00:56:01.775
01:00:56.319 : en:01:00:56.319
01:03:50.535 : en:01:03:50.535
01:07:29.254 : en:01:07:29.254
01:11:19.192 : en:01:11:19.192
01:15:32.820 : en:01:15:32.820
01:20:15.060 : en:01:20:15.060
01:27:47.471 : en:01:27:47.471
01:30:17.287 : en:01:30:17.287
01:34:04.013 : en:01:34:04.013
01:38:29.904 : en:01:38:29.904
01:40:52.546 : en:01:40:52.546
01:44:13.122 : en:01:44:13.122
01:51:51.872 : en:01:51:51.872
01:56:51.213 : en:01:56:51.213
02:01:02.714 : en:02:01:02.714
02:04:05.146 : en:02:04:05.146[/url]
[Link nur für registrierte und freigeschaltete Benutzer sichtbar]
Maze.Runner.2.Die.Auserwaehlten.in.der.Brandwueste .2015.German.DTS.DL.720p.BluRay.x264-MULTiPLEX ([Link nur für registrierte und freigeschaltete Benutzer sichtbar])
[Link nur für registrierte und freigeschaltete Benutzer sichtbar]
[url=[Link nur für registrierte und freigeschaltete Benutzer sichtbar]]Maze.Runner.2.Die.Auserwaehlten.in.der.Brandwueste .2015.German.DTS.DL.720p.BluRay.x264-MULTiPLEX ([Link nur für registrierte und freigeschaltete Benutzer sichtbar])
[Link nur für registrierte und freigeschaltete Benutzer sichtbar]
Reups werde ich mehrmals die Woche vornehmen, es kann sein Das sich die Part Größe ändert. zb. 100MB oder 500 ist angegeben, dann könnte es bei einem ReUp 101/152/501MB usw.. sein.(Wenn es für die Moderation Ok ist). Sollten die Files auf verschiedene Hoster denselben Namen habe, sind sie untereinander Kompatibel, ansonsten kein Mirror. Wenn etwas down ist und es als online angezeigt wird, schreibe mir einfach eine PN Antwort und reup versuch garantiert solange ich die Files noch habe. Reupps für ca einen Monat oder bis zum neuen Release TS, Web,BD, Mic, LD, Retail sound. Es kann mal vorkommen das ein Release falsch getaggt ist daher schaut euch die MediaInfo an. Die Uploader sind nicht für die Video und Ton Qualität verantwortlich. Schaut das Sample an wenn eins vorhanden ist.