PDA

Archiv verlassen und diese Seite im Standarddesign anzeigen : Die Passion Christi 2004 German Subbed DTS 1080p BluRay x264-iND



saugsdOCH
17.11.14, 14:36
1080p-0018


Die Passion Christi 2004 German Subbed DTS 1080p BluRay x264-iND
inkl. deutscher Untertitel

[Link nur für registrierte und freigeschaltete Benutzer sichtbar]

Beschreibung:


Die letzten zwölf Stunden im Leben des Jesus von Nazareth: Nach dem Abendmahl erscheint Jesus (James Caviezel) beim Gebet im Garten Gethsemane der Satan und gewährt ihm einen Blick in die nähere Zukunft. Trotz der in Aussicht gestellten Qualen bleibt Jesus standhaft und lässt sich widerstandslos festnehmen. Pilatus (Ivano Marescotti) erkennt den politischen Fall und übergibt die Verantwortung Herodes, der seinerseits unversöhnlichen Bibelgelehrten die Urteilsfindung überlässt. Vor die Wahl gestellt, entweder Jesus oder den Mörder Barrabas zu begnadigen, wählt das Volk Barrabas. Jesus wird ans Kreuz geschlagen.



NFO:

iND Presents: Die Passion Christi 2004 - 1080p

Releaseinfos
Releasedate : 23.02.2014
imdb Link : [Link nur für registrierte und freigeschaltete Benutzer sichtbar]
Soucre : BR Disc

Releasespecs
Format : Matroska (x264)
Format version : Version 4 / Version 2
File size : 12.8 GiB
Duration : 2h 6mn
Overall bit rate : 14.4 Mbps
Movie name : [Link nur für registrierte und freigeschaltete Benutzer sichtbar] *** link rem
Encoded date : UTC 2014-02-23 13:34:03
Writing application : mkvmerge v6.7.0 ('Back to the Ground') 64bit built on Jan 8 2014 15:10:52
Writing library : libebml v1.3.0 + libmatroska v1.4.1
Format : AVC
Format/Info : Advanced Video Codec
Format profile : High@L4.1
Format settings, CABAC : Yes
Format settings, ReFrames : 5 frames
Codec ID : V_MPEG4/ISO/AVC
Duration : 2h 6mn
Bit rate : 12.9 Mbps
Width : 1 920 pixels
Height : 800 pixels
Display aspect ratio : 2.40:1
Frame rate mode : Constant
Frame rate : 23.976 fps
Color space : YUV
Chroma subsampling : 4:2:0
Bit depth : 8 bits
Scan type : Progressive
Bits/(Pixel*Frame) : 0.351
Stream size : 11.2 GiB (88%)
Audio
Format : DTS
Mode : 16
Format settings, Endianness : Big
Codec ID : A_DTS
Duration : 2h 6mn
Bit rate mode : Constant
Bit rate : 1 509 Kbps
Channel(s) : 6 channels
Channel positions : Front: L C R, Side: L R, LFE
Sampling rate : 48.0 KHz
Bit depth : 24 bits
Compression mode : Lossy
Stream size : 1.33 GiB (10%)
Title : iND
Language : arc
Default : Yes
Subs
Format : UTF-8
Codec ID : S_TEXT/UTF8
Codec ID/Info : UTF-8 Plain Text
Title : iND
Language : German
Default : Yes
Forced : Yes
Kapitel : Yes



Genre: Drama
Sprache(n): Hebräisch, Latein, Aramäisch (deutsche Untertitel)
Größe: 13,3 GB
Parts: 55 Dateien
Part-Größe: 250 MB
Source: BDRiP > x264
Laufzeit: 126 Minuten
Format: MKV


[Link nur für registrierte und freigeschaltete Benutzer sichtbar]
uploaded / share-online

[Link nur für registrierte und freigeschaltete Benutzer sichtbar]

>> DOWNLOAD << ([Link nur für registrierte und freigeschaltete Benutzer sichtbar])



[Link nur für registrierte und freigeschaltete Benutzer sichtbar]