PDA

Archiv verlassen und diese Seite im Standarddesign anzeigen : Alibi com 2017 German DTS 1080p BluRay x264 - LeetHD



xenouser
01.12.17, 22:56
Alibi com

Cover

[Link nur für registrierte und freigeschaltete Benutzer sichtbar]
Alibi.com.2017.German.DTS.1080p.BluRay.x264-LeetHD

NFO:


Video: 1920 x 1036 @ 7 194 kb/s
Audio German: DTS 1 509 kb/s @ 6 channels
Subs German: forced
Subs German: complete





Beschreibung:

Geschäftsmann Grégory Van Huffel (Philippe Lacheau) hat eine zündende Idee: Gemeinsam mit Augustin (Julien Arruti) und Mehdi (Tarek Boudali) gründet er die Internetseite alibi.com, die darauf spezialisiert ist, ihre überwiegend männlichen Kunden bei Bedarf mit Alibis nach Maß zu versorgen. Doch als er sich in Flo Martin (Élodie Fontan) verliebt, sind die Zeiten, in denen er seinen Geschlechtsgenossen munter und ohne mit der Wimper zu zucken Ausreden und Vorwände verschafft, vorbei. Denn Flo hasst nichts mehr als lügende Männer. Grégory tut sein Möglichstes, um seinen Beruf vor Flo zu verstecken - aber als ihm seine Freundin eines Tages ihre Eltern vorstellt, entdeckt Grégory in Flos Vater einen der treuesten Kunden seines Unternehmens. Eine knifflige Situation, die bald ins Chaos auszuarten droht...

kein Passwort

Sprache: Deutsch
Genre: Comedy
Laufzeit: 89 Min.
Größe: 5600 MB
Parts: 14 Dateien

Youtube Trailer ('[Link nur für registrierte und freigeschaltete Benutzer sichtbar]'')


Download:

Uploaded.net
[Link nur für registrierte und freigeschaltete Benutzer sichtbar] ([Link nur für registrierte und freigeschaltete Benutzer sichtbar])

Share-online.biz
[Link nur für registrierte und freigeschaltete Benutzer sichtbar] ([Link nur für registrierte und freigeschaltete Benutzer sichtbar])

Openload.co
[Link nur für registrierte und freigeschaltete Benutzer sichtbar] ([Link nur für registrierte und freigeschaltete Benutzer sichtbar])

Ghoststage
02.12.17, 06:03
[Link nur für registrierte und freigeschaltete Benutzer sichtbar]
Releasename
Alibi com 2017 German DTS 1080p BluRay x264-LeetHD
[Link nur für registrierte und freigeschaltete Benutzer sichtbar]
[Link nur für registrierte und freigeschaltete Benutzer sichtbar]
Titel: Alibi com [Link nur für registrierte und freigeschaltete Benutzer sichtbar] Director: Philippe Lachaux [Link nur für registrierte und freigeschaltete Benutzer sichtbar] Genre: Comedy
Laufzeit: 89 Min. [Link nur für registrierte und freigeschaltete Benutzer sichtbar] Sprache/n: Deutsch [Link nur für registrierte und freigeschaltete Benutzer sichtbar]
Video Stream: BD [Link nur für registrierte und freigeschaltete Benutzer sichtbar] Video Format: MPEG-4 H.264 / AVC
Audio Stream: DTS 5.1
Hoster: [Link nur für registrierte und freigeschaltete Benutzer sichtbar] [Link nur für registrierte und freigeschaltete Benutzer sichtbar]
Größe: 5639,49 MB [Link nur für registrierte und freigeschaltete Benutzer sichtbar] Part size: 1000 MB [Link nur für registrierte und freigeschaltete Benutzer sichtbar] Parts: 6 Dateien
JDownloader WinRar 5 Plugin Google nach Public Betatest for RAR5 support.
[Link nur für registrierte und freigeschaltete Benutzer sichtbar]

[Link nur für registrierte und freigeschaltete Benutzer sichtbar]
[Link nur für registrierte und freigeschaltete Benutzer sichtbar]
[Link nur für registrierte und freigeschaltete Benutzer sichtbar]
Greg ist Geschäftsmann und sein jüngster Coup ist die Gründung des überaus erfolgreichen Unternehmens Alibi.com: Die zumeist männlichen Kunden werden bei Bedarf mit Alibis nach Maß beliefert. Zusammen mit seinem Partner Augustin und dem neuen Mitarbeiter Medhi wenden sie dabei alle Formen der Kunst an, um ihre Klienten zu decken oder ihnen aus der Patsche zu helfen. Doch dann lernt Greg die schöne Flo kennen - und wenn diese eins verabscheut, dann sind es lügende Männer... Selbstredend, dass Flo unter keinen Umständen den Hintergrund von Gregs Erfolg erfahren darf. Doch als Greg eines Tages Flos Eltern kennenlernt und ausgerechnet in ihrem Vater einen der treusten Kunden von Alibi.com erkennt, nimmt das Chaos seinen Lauf...
[Link nur für registrierte und freigeschaltete Benutzer sichtbar]
[Link nur für registrierte und freigeschaltete Benutzer sichtbar]
[Link nur für registrierte und freigeschaltete Benutzer sichtbar]

Duration : 1 h 29 min
Overall bit rate : 8 717 kb/s
Encoded date : UTC 2017-12-01 19:29:56
Writing application : mkvmerge v18.0.0 ('Apricity ) 64-bit
Writing library : libebml v1.3.5 + libmatroska v1.4.8

Video
ID : 1
Format : AVC
Format/Info : Advanced Video Codec
Format profile : [email protected]
Format settings : CABAC / 4 Ref Frames
Format settings, CABAC : Yes
Format settings, ReFrames : 4 frames
Codec ID : V_MPEG4/ISO/AVC
Duration : 1 h 29 min
Bit rate : 7 194 kb/s
Width : 1 920 pixels
Height : 1 036 pixels
Display aspect ratio : 1.85:1
Frame rate mode : Constant
Frame rate : 24.000 FPS
Color space : YUV
Chroma subsampling : 4:2:0
Bit depth : 8 bits
Scan type : Progressive
Bits/(Pixel*Frame : 0.151
Stream size : 4.50 GiB (83%)
Writing library : x264 core 152 r2851 ba24899
Encoding settings : cabac=1 / ref=4 / deblock=1:-1:-1 / analyse=0x3:0x113 / me=umh / subme=8 / psy=1 / psy_rd=0.99:0.01 / mixed_ref=1 / me_range=16 / chroma_me=1 / trellis=1 / 8x8dct=1 / cqm=0 / deadzone=21,11 / fast_pskip=0 / chroma_qp_offset=-3 / threads=12 / lookahead_threads=2 / sliced_threads=0 / nr=0 / decimate=1 / interlaced=0 / bluray_compat=0 / constrained_intra=0 / bframes=3 / b_pyramid=2 / b_adapt=2 / b_bias=0 / direct=3 / weightb=1 / open_gop=0 / weightp=2 / keyint=240 / keyint_min=24 / scenecut=40 / intra_refresh=0 / rc_lookahead=40 / rc=crf / mbtree=1 / crf=19.0 / qcomp=0.60 / qpmin=0 / qpmax=69 / qpstep=4 / vbv_maxrate=62500 / vbv_bufsize=78125 / crf_max=0.0 / nal_hrd=none / filler=0 / ip_ratio=1.40 / aq=1:1.00
Default : Yes
Forced : No

Audio
ID : 2
Format : DTS
Format/Info : Digital Theater Systems
Codec ID : A_DTS
Duration : 1 h 29 min
Bit rate mode : Constant
Bit rate : 1 509 kb/s
Channel(s : 6 channels
Channel positions : Front: L C R, Side: L R, LFE
Sampling rate : 48.0 kHz
Frame rate : 93.750 FPS (512 SPF)
Bit depth : 24 bits
Compression mode : Lossy
Stream size : 966 MiB (17%)
Language : German
Default : Yes
Forced : No

Text #1
ID : 3
Format : PGS
Muxing mode : zlib
Codec ID : S_HDMV/PGS
Codec ID/Info : Picture based subtitle format used on BDs/HD-DVDs
Duration : 1 h 22 min
Bit rate : 539 b/s
Count of elements : 40
Stream size : 325 KiB (0%)
Title : forced
Language : German
Default : Yes
Forced : Yes

Text #2
ID : 4
Format : PGS
Muxing mode : zlib
Codec ID : S_HDMV/PGS
Codec ID/Info : Picture based subtitle format used on BDs/HD-DVDs
Duration : 1 h 28 min
Bit rate : 31.2 kb/s
Count of elements : 2150
Stream size : 19.7 MiB (0%)
Title : complete
Language : German
Default : No
Forced : No

Menu
00:00:00.000 : en:00:00:00.000
00:10:05.750 : en:00:10:05.750
00:19:43.250 : en:00:19:43.250
00:31:57.375 : en:00:31:57.375
00:40:21.167 : en:00:40:21.167
00:51:11.667 : en:00:51:11.667
01:00:58.250 : en:01:00:58.250
01:09:24.667 : en:01:09:24.667
01:18:47.208 : en:01:18:47.208
01:25:56.292 : en:01:25:56.292[/url]
[Link nur für registrierte und freigeschaltete Benutzer sichtbar]
Alibi com 2017 German DTS 1080p BluRay x264-LeetHD ([Link nur für registrierte und freigeschaltete Benutzer sichtbar])
[Link nur für registrierte und freigeschaltete Benutzer sichtbar]
[url=[Link nur für registrierte und freigeschaltete Benutzer sichtbar]]Alibi com 2017 German DTS 1080p BluRay x264-LeetHD ([Link nur für registrierte und freigeschaltete Benutzer sichtbar])
[Link nur für registrierte und freigeschaltete Benutzer sichtbar]
Reups werde ich mehrmals die Woche vornehmen, es kann sein Das sich die Part Größe ändert. zb. 100MB oder 500 ist angegeben, dann könnte es bei einem ReUp 101/152/501MB usw.. sein.(Wenn es für die Moderation Ok ist). Sollten die Files auf verschiedene Hoster denselben Namen habe, sind sie untereinander Kompatibel, ansonsten kein Mirror. Wenn etwas down ist und es als online angezeigt wird, schreibe mir einfach eine PN Antwort und reup versuch garantiert solange ich die Files noch habe. Reupps für ca einen Monat oder bis zum neuen Release TS, Web,BD, Mic, LD, Retail sound. Es kann mal vorkommen das ein Release falsch getaggt ist daher schaut euch die MediaInfo an. Die Uploader sind nicht für die Video und Ton Qualität verantwortlich. Schaut das Sample an wenn eins vorhanden ist.