PDA

Archiv verlassen und diese Seite im Standarddesign anzeigen : House on Haunted Hill 1999 German DL 1080p BluRay x264 - DETAiLS



Ghoststage
01.12.17, 20:21
[Link nur für registrierte und freigeschaltete Benutzer sichtbar]
Releasename
House.on.Haunted.Hill.1999.German.DL.1080p.BluRay. x264-DETAiLS
[Link nur für registrierte und freigeschaltete Benutzer sichtbar]
[Link nur für registrierte und freigeschaltete Benutzer sichtbar]
Titel: House on Haunted Hill [Link nur für registrierte und freigeschaltete Benutzer sichtbar] Director: William Castle [Link nur für registrierte und freigeschaltete Benutzer sichtbar] Genre: Horror
Laufzeit: 92 Min. [Link nur für registrierte und freigeschaltete Benutzer sichtbar] Sprache/n: Deutsch [Link nur für registrierte und freigeschaltete Benutzer sichtbar] Englisch [Link nur für registrierte und freigeschaltete Benutzer sichtbar]
Video Stream: BD [Link nur für registrierte und freigeschaltete Benutzer sichtbar] Video Format: MPEG-4 H.264 / AVC
Audio Stream: DTS 5.1 [Link nur für registrierte und freigeschaltete Benutzer sichtbar] Notes: KEIN REUP
Hoster: [Link nur für registrierte und freigeschaltete Benutzer sichtbar] [Link nur für registrierte und freigeschaltete Benutzer sichtbar]
Größe: 9878,54 MB [Link nur für registrierte und freigeschaltete Benutzer sichtbar] Part size: 1000 MB [Link nur für registrierte und freigeschaltete Benutzer sichtbar] Parts: 10 Dateien
JDownloader WinRar 5 Plugin Google nach Public Betatest for RAR5 support.
[Link nur für registrierte und freigeschaltete Benutzer sichtbar]


[Link nur für registrierte und freigeschaltete Benutzer sichtbar]
[Link nur für registrierte und freigeschaltete Benutzer sichtbar]
[Link nur für registrierte und freigeschaltete Benutzer sichtbar]
Der exzentrische Millionär Frederick Loren (Vincent Price) lädt mit seiner Frau fünf Fremde ein, eine Nacht in dem Haus auf dem Geisterhügel zu verbringen, um dann 10.000 Dollar zu kassieren. Alle willigen ein und schon bald ist in dem weiträumigen Gebäude die Hölle los: Blut tropft von der Decke, ein abgetrennter Kopf taucht auf und Geister erscheinen. Es gibt kein entkommen vor Dr. Horror!
[Link nur für registrierte und freigeschaltete Benutzer sichtbar]
[Link nur für registrierte und freigeschaltete Benutzer sichtbar]
[Link nur für registrierte und freigeschaltete Benutzer sichtbar]

Duration : 1 h 32 min
Overall bit rate : 14.7 Mb/s
Movie name : House on Haunted Hill
Encoded date : UTC 2010-11-04 05:23:34
Writing application : mkvmerge v4.2.0 ('No Talking ) gebaut am Jul 28 2010 16:41:09
Writing library : libebml v1.0.0 + libmatroska v1.0.0

Video
ID : 1
Format : AVC
Format/Info : Advanced Video Codec
Format profile : [email protected]
Format settings : CABAC / 4 Ref Frames
Format settings, CABAC : Yes
Format settings, ReFrames : 4 frames
Codec ID : V_MPEG4/ISO/AVC
Duration : 1 h 32 min
Bit rate : 11.4 Mb/s
Width : 1 920 pixels
Height : 1 080 pixels
Display aspect ratio : 16:9
Frame rate mode : Constant
Frame rate : 24.000 FPS
Color space : YUV
Chroma subsampling : 4:2:0
Bit depth : 8 bits
Scan type : Progressive
Bits/(Pixel*Frame : 0.228
Stream size : 7.36 GiB (77%)
Title : House on Haunted Hill
Writing library : x264 core 107 r1745 4785e8e
Encoding settings : cabac=1 / ref=4 / deblock=1:0:0 / analyse=0x3:0x133 / me=umh / subme=7 / psy=1 / psy_rd=1.00:0.15 / mixed_ref=1 / me_range=16 / chroma_me=1 / trellis=1 / 8x8dct=1 / cqm=0 / deadzone=21,11 / fast_pskip=0 / chroma_qp_offset=-3 / threads=6 / sliced_threads=0 / nr=0 / decimate=1 / interlaced=0 / constrained_intra=0 / bframes=3 / b_pyramid=2 / b_adapt=1 / b_bias=0 / direct=3 / weightb=1 / open_gop=0 / weightp=2 / keyint=250 / keyint_min=24 / scenecut=40 / intra_refresh=0 / rc_lookahead=40 / rc=crf / mbtree=1 / crf=21.0 / qcomp=0.60 / qpmin=10 / qpmax=51 / qpstep=4 / ip_ratio=1.40 / aq=1:1.00
Default : Yes
Forced : No

Audio #1
ID : 2
Format : DTS
Format/Info : Digital Theater Systems
Codec ID : A_DTS
Duration : 1 h 32 min
Bit rate mode : Constant
Bit rate : 1 509 kb/s
Channel(s : 6 channels
Channel positions : Front: L C R, Side: L R, LFE
Sampling rate : 48.0 kHz
Frame rate : 93.750 FPS (512 SPF)
Bit depth : 24 bits
Compression mode : Lossy
Stream size : 1 001 MiB (10%)
Title : DTS
Language : German
Default : Yes
Forced : No

Audio #2
ID : 3
Format : DTS
Format/Info : Digital Theater Systems
Codec ID : A_DTS
Duration : 1 h 32 min
Bit rate mode : Constant
Bit rate : 1 509 kb/s
Channel(s : 6 channels
Channel positions : Front: L C R, Side: L R, LFE
Sampling rate : 48.0 kHz
Frame rate : 93.750 FPS (512 SPF)
Bit depth : 24 bits
Compression mode : Lossy
Stream size : 1 001 MiB (10%)
Title : DTS
Language : English
Default : No
Forced : No

Menu
00:00:00.000 : de:00:00:00.000
00:07:37.750 : de:00:07:37.750
00:11:44.917 : de:00:11:44.917
00:18:07.000 : de:00:18:07.000
00:24:32.058 : de:00:24:32.058
00:29:53.208 : de:00:29:53.208
00:35:50.667 : de:00:35:50.667
00:41:00.042 : de:00:41:00.042
00:47:22.958 : de:00:47:22.958
00:52:36.042 : de:00:52:36.042
00:59:24.458 : de:00:59:24.458
01:05:42.667 : de:01:05:42.667
01:09:47.042 : de:01:09:47.042
01:15:04.458 : de:01:15:04.458
01:21:32.792 : de:01:21:32.792
01:28:29.917 : de:01:28:29.917[/url]
[Link nur für registrierte und freigeschaltete Benutzer sichtbar]
House.on.Haunted.Hill.1999.German.DL.1080p.BluRay. x264-DETAiLS ([Link nur für registrierte und freigeschaltete Benutzer sichtbar])
[Link nur für registrierte und freigeschaltete Benutzer sichtbar]
[url=[Link nur für registrierte und freigeschaltete Benutzer sichtbar]]House.on.Haunted.Hill.1999.German.DL.1080p.BluRay. x264-DETAiLS ([Link nur für registrierte und freigeschaltete Benutzer sichtbar])
[Link nur für registrierte und freigeschaltete Benutzer sichtbar]
Reups werde ich mehrmals die Woche vornehmen, es kann sein Das sich die Part Größe ändert. zb. 100MB oder 500 ist angegeben, dann könnte es bei einem ReUp 101/152/501MB usw.. sein.(Wenn es für die Moderation Ok ist). Sollten die Files auf verschiedene Hoster denselben Namen habe, sind sie untereinander Kompatibel, ansonsten kein Mirror. Wenn etwas down ist und es als online angezeigt wird, schreibe mir einfach eine PN Antwort und reup versuch garantiert solange ich die Files noch habe. Reupps für ca einen Monat oder bis zum neuen Release TS, Web,BD, Mic, LD, Retail sound. Es kann mal vorkommen das ein Release falsch getaggt ist daher schaut euch die MediaInfo an. Die Uploader sind nicht für die Video und Ton Qualität verantwortlich. Schaut das Sample an wenn eins vorhanden ist.