PDA

Archiv verlassen und diese Seite im Standarddesign anzeigen : Monsieur Pierre geht online 2017 German DTS 1080p BluRay x264 - LeetHD



Jennifer_Jareau
30.11.17, 17:08
Monsieur Pierre geht online 2017 German DTS 1080p BluRay x264 - LeetHD

[Link nur für registrierte und freigeschaltete Benutzer sichtbar]


Pierre ist Witwer, Griesgram und hasst Veränderungen aller Art. Tagein, tagaus schwelgt er in Erinnerungen an die gute alte Zeit und züchtet seltene Schimmelkulturen im Kühlschrank.
Um den alten Herrn zurück ins Leben zu schubsen, verkuppelt seine Tochter Sylvie ihn mit Alex, einem erfolglosen Schriftsteller und Freund ihrer Tochter. Alex soll Pierre mit der fabelhaften Welt des Internets vertraut machen.
Das Lernduo tut sich mächtig schwer, bis Pierre ausgerechnet über ein Datingportal stolpert. Dank der beruhigenden Anonymität des Internets entdeckt sich Pierre als Verführer und verabredet sich mit der jungen Flora - zum Glück hat er ja Alex, der sich geradezu anbietet, die Konsequenzen zu tragen. Der in großen Finanznöten steckende Alex akzeptiert Pierres unmoralisches, aber exzellent bezahltes Angebot und geht an Pierres Stelle zum Rendezvous.
Dass sich Flora Hals über Kopf verliebt, bringt die Situation in eine gewisse Schieflage. Pierre ist sich sicher, dass seine verbale Verführungskunst Floras Gefühle geweckt hat. Ganz unschuldig können aber auch Alex` Küsse nicht gewesen sein. Vor allem aber sind es eigentlich die beiden Männer, die von Flora im Sturm erobert wurden, und nun endgültig im selben Boot sitzen, nur die Kapitänsfrage muss noch geklärt werden.


Genre: Romance
IMDB Infos: Monsieur Pierre geht online ([Link nur für registrierte und freigeschaltete Benutzer sichtbar])
Ton: Deutsch (DTS 5.1)
Untertitel: Deutsch
Video: Blu-ray (MPEG-4 H.264 / AVC)
Sample: [Link nur für registrierte und freigeschaltete Benutzer sichtbar]
Partgröße: 1023 MB
Parts: 9 Stück
Gesamtgröße: 8.04 GB


NFO:
Video: 1920 x 1036 @ 10.5 Mb/s
Audio German: DTS 768 kb/s @ 6 channels
Subs German: complete

Share-online.biz [Link nur für registrierte und freigeschaltete Benutzer sichtbar]
Hier geht es zum Download & bitte auch das - Bedanken - klicken nicht vergessen! ('[Link nur für registrierte und freigeschaltete Benutzer sichtbar]')

Uploaded.net [Link nur für registrierte und freigeschaltete Benutzer sichtbar]
Hier geht es zum Download & bitte auch das - Bedanken - klicken nicht vergessen! ('[Link nur für registrierte und freigeschaltete Benutzer sichtbar]')

Ghoststage
30.11.17, 18:41
[Link nur für registrierte und freigeschaltete Benutzer sichtbar]
Releasename
Monsieur.Pierre.geht.online.2017.German.DTS.1080p. BluRay.x264-LeetHD
[Link nur für registrierte und freigeschaltete Benutzer sichtbar]
[Link nur für registrierte und freigeschaltete Benutzer sichtbar]
Titel: Monsieur Pierre geht online [Link nur für registrierte und freigeschaltete Benutzer sichtbar] Director: Stéphane Robelin [Link nur für registrierte und freigeschaltete Benutzer sichtbar] Genre: Comedy
Laufzeit: 100 Min. [Link nur für registrierte und freigeschaltete Benutzer sichtbar] Sprache/n: Deutsch [Link nur für registrierte und freigeschaltete Benutzer sichtbar]
Video Stream: BD [Link nur für registrierte und freigeschaltete Benutzer sichtbar] Video Format: MPEG-4 H.264 / AVC
Audio Stream: DTS 5.1
Hoster: [Link nur für registrierte und freigeschaltete Benutzer sichtbar] [Link nur für registrierte und freigeschaltete Benutzer sichtbar]
Größe: 8236,73 MB [Link nur für registrierte und freigeschaltete Benutzer sichtbar] Part size: 1000 MB [Link nur für registrierte und freigeschaltete Benutzer sichtbar] Parts: 9 Dateien
JDownloader WinRar 5 Plugin Google nach Public Betatest for RAR5 support.
[Link nur für registrierte und freigeschaltete Benutzer sichtbar]

[Link nur für registrierte und freigeschaltete Benutzer sichtbar]
[Link nur für registrierte und freigeschaltete Benutzer sichtbar]
[Link nur für registrierte und freigeschaltete Benutzer sichtbar]
Pierre ist Witwer, Griesgram und hasst Veränderungen aller Art. Tagein, tagaus schwelgt er in Erinnerungen an die gute alte Zeit und züchtet seltene Schimmelkulturen im Kühlschrank. Um den alten Herrn zurück ins Leben zu schubsen, verkuppelt seine Tochter Sylvie ihn mit Alex, einem erfolglosen Schriftsteller und Freund ihrer Tochter. Alex soll Pierre mit der fabelhaften Welt des Internets vertraut machen. Das ungewohnte Lernduo tut sich mächtig schwer, bis Pierre ausgerechnet über ein Datingportal stolpert. Dank der beruhigenden Anonymität des Internets entdeckt sich Pierre als Verführer und verabredet sich mit der jungen Flora - zum Glück hat er ja Alex, der sich geradezu anbietet, die Konsequenzen zu tragen. Der in großen Finanznöten steckende Alex akzeptiert Pierres unmoralisches, aber exzellent bezahltes Angebot und geht an Pierres Stelle zum Rendezvous. Dass sich Flora Hals über Kopf verliebt, bringt die Situation in eine gewisse Schieflage. Pierre ist sich sicher, dass seine verbale Verführungskunst Floras Gefühle geweckt hat. Ganz unschuldig können aber auch Alex' Küsse nicht gewesen sein. Vor allem aber sind es eigentlich die beiden Männer, die von Flora im Sturm erobert wurden, und nun endgültig im selben Boot sitzen, nur die Kapitänsfrage muss noch geklärt werden...
[Link nur für registrierte und freigeschaltete Benutzer sichtbar]
[Link nur für registrierte und freigeschaltete Benutzer sichtbar]
[Link nur für registrierte und freigeschaltete Benutzer sichtbar]

Duration : 1 h 40 min
Overall bit rate : 11.3 Mb/s
Encoded date : UTC 2017-11-30 10:52:34
Writing application : mkvmerge v18.0.0 ('Apricity ) 64-bit
Writing library : libebml v1.3.5 + libmatroska v1.4.8

Video
ID : 1
Format : AVC
Format/Info : Advanced Video Codec
Format profile : [email protected]
Format settings : CABAC / 4 Ref Frames
Format settings, CABAC : Yes
Format settings, ReFrames : 4 frames
Codec ID : V_MPEG4/ISO/AVC
Duration : 1 h 40 min
Bit rate : 10.5 Mb/s
Width : 1 920 pixels
Height : 1 036 pixels
Display aspect ratio : 1.85:1
Frame rate mode : Constant
Frame rate : 24.000 FPS
Color space : YUV
Chroma subsampling : 4:2:0
Bit depth : 8 bits
Scan type : Progressive
Bits/(Pixel*Frame : 0.220
Stream size : 7.41 GiB (93%)
Writing library : x264 core 152 r2851 ba24899
Encoding settings : cabac=1 / ref=4 / deblock=1:-1:-1 / analyse=0x3:0x113 / me=umh / subme=8 / psy=1 / psy_rd=0.99:0.01 / mixed_ref=1 / me_range=16 / chroma_me=1 / trellis=1 / 8x8dct=1 / cqm=0 / deadzone=21,11 / fast_pskip=0 / chroma_qp_offset=-3 / threads=12 / lookahead_threads=2 / sliced_threads=0 / nr=0 / decimate=1 / interlaced=0 / bluray_compat=0 / constrained_intra=0 / bframes=3 / b_pyramid=2 / b_adapt=2 / b_bias=0 / direct=3 / weightb=1 / open_gop=0 / weightp=2 / keyint=240 / keyint_min=24 / scenecut=40 / intra_refresh=0 / rc_lookahead=40 / rc=crf / mbtree=1 / crf=19.0 / qcomp=0.60 / qpmin=0 / qpmax=69 / qpstep=4 / vbv_maxrate=62500 / vbv_bufsize=78125 / crf_max=0.0 / nal_hrd=none / filler=0 / ip_ratio=1.40 / aq=1:1.00
Default : Yes
Forced : No

Audio
ID : 2
Format : DTS
Format/Info : Digital Theater Systems
Codec ID : A_DTS
Duration : 1 h 40 min
Bit rate mode : Constant
Bit rate : 768 kb/s
Channel(s : 6 channels
Channel positions : Front: L C R, Side: L R, LFE
Sampling rate : 48.0 kHz
Frame rate : 93.750 FPS (512 SPF)
Bit depth : 24 bits
Compression mode : Lossy
Stream size : 555 MiB (7%)
Language : German
Default : Yes
Forced : No

Text
ID : 3
Format : VobSub
Muxing mode : zlib
Codec ID : S_VOBSUB
Codec ID/Info : Picture based subtitle format used on DVDs
Duration : 1 h 34 min
Bit rate : 7 269 b/s
Count of elements : 1191
Stream size : 4.90 MiB (0%)
Title : complete
Language : German
Default : No
Forced : No

Menu
00:00:00.000 : en:00:00:00.000
00:04:30.000 : en:00:04:30.000
00:14:11.417 : en:00:14:11.417
00:25:02.208 : en:00:25:02.208
00:31:26.542 : en:00:31:26.542
00:39:25.042 : en:00:39:25.042
00:49:45.833 : en:00:49:45.833
00:58:48.375 : en:00:58:48.375
01:10:51.125 : en:01:10:51.125
01:17:55.500 : en:01:17:55.500
01:23:48.708 : en:01:23:48.708
01:36:08.250 : en:01:36:08.250[/url]
[Link nur für registrierte und freigeschaltete Benutzer sichtbar]
Monsieur.Pierre.geht.online.2017.German.DTS.1080p. BluRay.x264-LeetHD ([Link nur für registrierte und freigeschaltete Benutzer sichtbar])
[Link nur für registrierte und freigeschaltete Benutzer sichtbar]
[url=[Link nur für registrierte und freigeschaltete Benutzer sichtbar]]Monsieur.Pierre.geht.online.2017.German.DTS.1080p. BluRay.x264-LeetHD ([Link nur für registrierte und freigeschaltete Benutzer sichtbar])
[Link nur für registrierte und freigeschaltete Benutzer sichtbar]
Reups werde ich mehrmals die Woche vornehmen, es kann sein Das sich die Part Größe ändert. zb. 100MB oder 500 ist angegeben, dann könnte es bei einem ReUp 101/152/501MB usw.. sein.(Wenn es für die Moderation Ok ist). Sollten die Files auf verschiedene Hoster denselben Namen habe, sind sie untereinander Kompatibel, ansonsten kein Mirror. Wenn etwas down ist und es als online angezeigt wird, schreibe mir einfach eine PN Antwort und reup versuch garantiert solange ich die Files noch habe. Reupps für ca einen Monat oder bis zum neuen Release TS, Web,BD, Mic, LD, Retail sound. Es kann mal vorkommen das ein Release falsch getaggt ist daher schaut euch die MediaInfo an. Die Uploader sind nicht für die Video und Ton Qualität verantwortlich. Schaut das Sample an wenn eins vorhanden ist.