PDA

Archiv verlassen und diese Seite im Standarddesign anzeigen : American Assassin German AC3LD DL 1080p BluRay AVC REMUX - LameHD



Ghoststage
27.11.17, 10:56
[Link nur für registrierte und freigeschaltete Benutzer sichtbar]
Releasename
American.Assassin.German.AC3LD.DL.1080p.BluRay.AVC .REMUX-LameHD
[Link nur für registrierte und freigeschaltete Benutzer sichtbar]
[Link nur für registrierte und freigeschaltete Benutzer sichtbar]
Titel: American Assassin [Link nur für registrierte und freigeschaltete Benutzer sichtbar] Director: Michael Cuesta [Link nur für registrierte und freigeschaltete Benutzer sichtbar] Genre: Thriller
Laufzeit: 111 Min. [Link nur für registrierte und freigeschaltete Benutzer sichtbar] Sprache/n: Deutsch [Link nur für registrierte und freigeschaltete Benutzer sichtbar] Englisch [Link nur für registrierte und freigeschaltete Benutzer sichtbar]
Video Stream: BD [Link nur für registrierte und freigeschaltete Benutzer sichtbar] Video Format: MPEG-4 H.264 / AVC
Audio Stream: Dolby Digital 2.0
Hoster: [Link nur für registrierte und freigeschaltete Benutzer sichtbar] [Link nur für registrierte und freigeschaltete Benutzer sichtbar]
Größe: 24012,14 MB [Link nur für registrierte und freigeschaltete Benutzer sichtbar] Part size: 1000 MB [Link nur für registrierte und freigeschaltete Benutzer sichtbar] Parts: 25 Dateien
JDownloader WinRar 5 Plugin Google nach Public Betatest for RAR5 support.
[Link nur für registrierte und freigeschaltete Benutzer sichtbar]

[Link nur für registrierte und freigeschaltete Benutzer sichtbar]
[Link nur für registrierte und freigeschaltete Benutzer sichtbar]
[Link nur für registrierte und freigeschaltete Benutzer sichtbar]
Nach dem tödlichen Attentat auf seine Verlobte sinnt Mitch Rapp auf Rache. Beim CIA lässt er sich von dem berüchtigten Kriegs-Veteranen Stan Hurley zum Elite-Agenten ausbilden. Schnell erhalten die beiden ihren ersten, folgenschweren Auftrag: Es gilt, die Hintergründe einer Reihe scheinbar willkürlicher Anschläge auf sowohl militärische als auch zivile Ziele zu überprüfen. Bald entdecken sie, dass alle Attentate Parallelen aufweisen. Gemeinsam mit einer geheimen Spezialeinheit begeben sie sich auf eine hochriskante Mission: Es gilt, den äußerst gefährlichen Drahtzieher hinter einer großangelegten Verschwörung zu stoppen. Doch dieser hat nicht vor, sich von seinen todbringenden Plänen abbringen zu lassen und scheint stets einen Schritt voraus. Eine erbarmungslose Jagd beginnt...
[Link nur für registrierte und freigeschaltete Benutzer sichtbar]
[Link nur für registrierte und freigeschaltete Benutzer sichtbar]
[Link nur für registrierte und freigeschaltete Benutzer sichtbar]

Duration : 1 h 51 min
Overall bit rate mode : Variable
Overall bit rate : 29.8 Mb/s
Movie name : American Assassin 2017 1080p Remux AVC TrueHD 7.1-TRANSPARENCY
Encoded date : UTC 2017-11-27 07:11:06
Writing application : mkvmerge v9.7.1 ('Pandemonium ) 64bit
Writing library : libebml v1.3.4 + libmatroska v1.4.5

Video
ID : 1
Format : AVC
Format/Info : Advanced Video Codec
Format profile : [email protected]
Format settings : CABAC / 4 Ref Frames
Format settings, CABAC : Yes
Format settings, ReFrames : 4 frames
Codec ID : V_MPEG4/ISO/AVC
Duration : 1 h 51 min
Bit rate mode : Variable
Bit rate : 25.0 Mb/s
Maximum bit rate : 35.0 Mb/s
Width : 1 920 pixels
Height : 1 080 pixels
Display aspect ratio : 16:9
Frame rate mode : Constant
Frame rate : 23.976 (24000/1001) FPS
Standard : NTSC
Color space : YUV
Chroma subsampling : 4:2:0
Bit depth : 8 bits
Scan type : Progressive
Bits/(Pixel*Frame : 0.503
Stream size : 19.5 GiB (84%)
Title : MPEG-4 AVC Video / 25003 kbps / 1080p / 23.976 fps / 16:9 / High Profile 4.1 /
Default : Yes
Forced : No
Color range : Limited
Color primaries : BT.709
Transfer characteristics : BT.709
Matrix coefficients : BT.709

Audio #1
ID : 2
Format : AC-3
Format/Info : Audio Coding 3
Codec ID : A_AC3
Duration : 1 h 51 min
Bit rate mode : Constant
Bit rate : 224 kb/s
Channel(s : 2 channels
Channel positions : Front: L R
Sampling rate : 48.0 kHz
Frame rate : 31.250 FPS (1536 SPF)
Bit depth : 16 bits
Compression mode : Lossy
Stream size : 179 MiB (1%)
Language : German
Service kind : Complete Main
Default : Yes
Forced : No

Audio #2
ID : 3
Format : TrueHD
Format profile : TrueHD+Atmos / TrueHD
Codec ID : A_TRUEHD
Duration : 1 h 51 min
Bit rate mode : Variable
Bit rate : 4 477 kb/s
Maximum bit rate : 8 031 kb/s
Channel(s : Object Based / 8 channels
Channel positions : Object Based / Front: L C R, Side: L R, Back: L R, LFE
Sampling rate / 48.0 kHz
Frame rate : 1 200.000 FPS (40 SPF)
Compression mode : Lossless
Stream size : 3.49 GiB (15%)
Language : English
Default : No
Forced : No

Text #1
ID : 4
Format : UTF-8
Codec ID : S_TEXT/UTF8
Codec ID/Info : UTF-8 Plain Text
Duration : 1 h 37 min
Bit rate : 3 b/s
Count of elements : 62
Stream size : 2.15 KiB (0%)
Title : forced
Language : German
Default : Yes
Forced : Yes

Text #2
ID : 5
Format : PGS
Muxing mode : zlib
Codec ID : S_HDMV/PGS
Codec ID/Info : Picture based subtitle format used on BDs/HD-DVDs
Duration : 1 h 42 min
Bit rate : 12.7 kb/s
Count of elements : 2578
Stream size : 9.31 MiB (0%)
Title : English SDH
Language : English
Default : No
Forced : No

Menu
00:00:00.000 : en:Chapter 1
00:08:55.535 : en:Chapter 2
00:16:09.969 : en:Chapter 3
00:23:30.409 : en:Chapter 4
00:29:16.421 : en:Chapter 5
00:36:45.703 : en:Chapter 6
00:43:58.636 : en:Chapter 7
00:52:32.483 : en:Chapter 8
00:57:09.760 : en:Chapter 9
01:07:08.191 : en:Chapter 10
01:14:02.605 : en:Chapter 11
01:17:44.660 : en:Chapter 12
01:22:37.119 : en:Chapter 13
01:27:14.229 : en:Chapter 14
01:34:03.137 : en:Chapter 15
01:43:25.366 : en:Chapter 16[/url]
[Link nur für registrierte und freigeschaltete Benutzer sichtbar]
American.Assassin.German.AC3LD.DL.1080p.BluRay.AVC .REMUX-LameHD ([Link nur für registrierte und freigeschaltete Benutzer sichtbar])
[Link nur für registrierte und freigeschaltete Benutzer sichtbar]
[url=[Link nur für registrierte und freigeschaltete Benutzer sichtbar]]American.Assassin.German.AC3LD.DL.1080p.BluRay.AVC .REMUX-LameHD ([Link nur für registrierte und freigeschaltete Benutzer sichtbar])
[Link nur für registrierte und freigeschaltete Benutzer sichtbar]
Reups werde ich mehrmals die Woche vornehmen, es kann sein Das sich die Part Größe ändert. zb. 100MB oder 500 ist angegeben, dann könnte es bei einem ReUp 101/152/501MB usw.. sein.(Wenn es für die Moderation Ok ist). Sollten die Files auf verschiedene Hoster denselben Namen habe, sind sie untereinander Kompatibel, ansonsten kein Mirror. Wenn etwas down ist und es als online angezeigt wird, schreibe mir einfach eine PN Antwort und reup versuch garantiert solange ich die Files noch habe. Reupps für ca einen Monat oder bis zum neuen Release TS, Web,BD, Mic, LD, Retail sound. Es kann mal vorkommen das ein Release falsch getaggt ist daher schaut euch die MediaInfo an. Die Uploader sind nicht für die Video und Ton Qualität verantwortlich. Schaut das Sample an wenn eins vorhanden ist.

Jennifer_Jareau
27.11.17, 16:49
American Assassin German AC3LD DL 1080p BluRay AVC REMUX - LameHD

[Link nur für registrierte und freigeschaltete Benutzer sichtbar]


Nach dem tödlichen Attentat auf seine Verlobte sinnt Mitch Rapp (Dylan O'Brien) auf Rache. Beim CIA lässt er sich von dem berüchtigten Kriegs-Veteranen Stan Hurley (Michael Keaton) zum Elite-Agenten ausbilden. Schnell erhalten die beiden ihren ersten, folgenschweren Auftrag: Es gilt, die Hintergründe einer Reihe scheinbar willkürlicher Anschläge auf sowohl militärische als auch zivile Ziele zu überprüfen. Bald entdecken sie, dass alle Attentate Parallelen aufweisen. Gemeinsam mit einer geheimen Spezialeinheit begeben sie sich auf eine hochriskante Mission: Es gilt, den äußerst gefährlichen Drahtzieher (Taylor Kitsch) hinter einer großangelegten Verschwörung zu stoppen. Doch dieser hat nicht vor, sich von seinen todbringenden Plänen abbringen zu lassen und scheint stets einen Schritt voraus. Eine erbarmungslose Jagd beginnt...


Genre: Thriller
IMDB Infos: American Assassin ([Link nur für registrierte und freigeschaltete Benutzer sichtbar])
Ton: Englisch/Deutsch (Dolby Digital 2.0 (LineDubbed))
Untertitel: Englisch/Deutsch
Video: Blu-ray (MPEG-4 H.264 / AVC)
Sample: [Link nur für registrierte und freigeschaltete Benutzer sichtbar]
Partgröße: 1023 MB
Parts: 24 Stück
Gesamtgröße: 23.4 GB


NFO:
Video: 1920 x 1080 @ 25.0 Mb/s
Audio German: AC-3 224 kb/s @ 2 channels [Line PsO]
Audio English: Atmos / TrueHD 4 477 kb/s @ Object Based / 8 channels
Subs German: forced
Subs English: English SDH

Share-online.biz [Link nur für registrierte und freigeschaltete Benutzer sichtbar]
Hier geht es zum Download & bitte auch das - Bedanken - klicken nicht vergessen! ('[Link nur für registrierte und freigeschaltete Benutzer sichtbar]')

Uploaded.net [Link nur für registrierte und freigeschaltete Benutzer sichtbar]
Hier geht es zum Download & bitte auch das - Bedanken - klicken nicht vergessen! ('[Link nur für registrierte und freigeschaltete Benutzer sichtbar]')