PDA

Archiv verlassen und diese Seite im Standarddesign anzeigen : Chop UNCUT 2011 German DL 720p BluRay x264 - BluRHD



Ghoststage
20.11.17, 12:47
[Link nur für registrierte und freigeschaltete Benutzer sichtbar]
Releasename
Chop.UNCUT.2011.German.DL.720p.BluRay.x264-BluRHD
[Link nur für registrierte und freigeschaltete Benutzer sichtbar]
[Link nur für registrierte und freigeschaltete Benutzer sichtbar]
Titel: Chop [Link nur für registrierte und freigeschaltete Benutzer sichtbar] Director: Trent Haaga [Link nur für registrierte und freigeschaltete Benutzer sichtbar] Genre: Horror
Laufzeit: 79 Min. [Link nur für registrierte und freigeschaltete Benutzer sichtbar] Sprache/n: Deutsch [Link nur für registrierte und freigeschaltete Benutzer sichtbar] Englisch [Link nur für registrierte und freigeschaltete Benutzer sichtbar]
Video Stream: BD [Link nur für registrierte und freigeschaltete Benutzer sichtbar] Video Format: MPEG-4 H.264 / AVC
Audio Stream: DTS 5.1 [Link nur für registrierte und freigeschaltete Benutzer sichtbar] Notes: Uncut
Hoster: [Link nur für registrierte und freigeschaltete Benutzer sichtbar] [Link nur für registrierte und freigeschaltete Benutzer sichtbar]
Größe: 4212,36 MB [Link nur für registrierte und freigeschaltete Benutzer sichtbar] Part size: 1000 MB [Link nur für registrierte und freigeschaltete Benutzer sichtbar] Parts: 5 Dateien
Part Größe kann nach einem REUP Stark Variieren.
[Link nur für registrierte und freigeschaltete Benutzer sichtbar]
[Link nur für registrierte und freigeschaltete Benutzer sichtbar]

[Link nur für registrierte und freigeschaltete Benutzer sichtbar]
[Link nur für registrierte und freigeschaltete Benutzer sichtbar]
[Link nur für registrierte und freigeschaltete Benutzer sichtbar]
Als Lance eine Autopanne hat, da ahnt er noch nicht, dass der freundliche Fremde, der ihn zur nächsten Tankstelle mitnimmt, in Wirklichkeit gar nicht so freundlich ist. Der namenlose Fremde entpuppt sich als kaltblütiger Psychopath, der Lance für eine Tat zur Rechenschaft ziehen möchte, die er angeblich Jahre zuvor begangen hat. Zuerst demontiert er Stück für Stück das Leben von Lance, bevor er wortwörtlich damit beginnt, Lance selbst Stück für Stück auseinanderzunehmen.
[Link nur für registrierte und freigeschaltete Benutzer sichtbar]

Duration : 1 h 19 min
Overall bit rate : 7 404 kb/s
Encoded date : UTC 2017-11-19 12:38:24
Writing application : mkvmerge v4.5.0 ('Speed of Light ) gebaut am Feb 1 2011 02:10:32
Writing library : libebml v1.2.0 + libmatroska v1.1.0

Video
ID : 1
Format : AVC
Format/Info : Advanced Video Codec
Format profile : [email protected]
Format settings : CABAC / 4 Ref Frames
Format settings, CABAC : Yes
Format settings, RefFrames : 4 frames
Codec ID : V_MPEG4/ISO/AVC
Duration : 1 h 19 min
Bit rate : 4 238 kb/s
Width : 1 280 pixels
Height : 720 pixels
Display aspect ratio : 16:9
Frame rate mode : Constant
Frame rate : 25.000 FPS
Color space : YUV
Chroma subsampling : 4:2:0
Bit depth : 8 bits
Scan type : Progressive
Bits/(Pixel*Frame : 0.184
Stream size : 2.35 GiB (57%)
Writing library : x264 core 152 r2851 ba24899
Encoding settings : cabac=1 / ref=5 / deblock=1:-1:-1 / analyse=0x3:0x113 / me=umh / subme=7 / psy=1 / psy_rd=1.00:0.15 / mixed_ref=1 / me_range=16 / chroma_me=1 / trellis=2 / 8x8dct=1 / cqm=0 / deadzone=21,11 / fast_pskip=1 / chroma_qp_offset=-3 / threads=22 / lookahead_threads=3 / sliced_threads=0 / nr=0 / decimate=1 / interlaced=0 / bluray_compat=0 / constrained_intra=0 / bframes=3 / b_pyramid=1 / b_adapt=1 / b_bias=0 / direct=3 / weightb=1 / open_gop=0 / weightp=2 / keyint=250 / keyint_min=25 / scenecut=40 / intra_refresh=0 / rc_lookahead=50 / rc=crf / mbtree=1 / crf=18.0 / qcomp=0.60 / qpmin=0 / qpmax=69 / qpstep=4 / ip_ratio=1.40 / aq=1:1.00
Default : Yes
Forced : No

Audio #1
ID : 2
Format : DTS
Format/Info : Digital Theater Systems
Mode : 16
Format settings, Endianness : Big
Codec ID : A_DTS
Duration : 1 h 19 min
Bit rate mode : Constant
Bit rate : 1 509 kb/s
Channel(s : 6 channels
Channel positions : Front: L C R, Side: L R, LFE
Sampling rate : 48.0 kHz
Frame rate : 93.750 FPS (512 SPF)
Bit depth : 24 bits
Compression mode : Lossy
Stream size : 859 MiB (20%)
Title : German
Language : German
Default : Yes
Forced : No

Audio #2
ID : 3
Format : DTS
Format/Info : Digital Theater Systems
Mode : 16
Format settings, Endianness : Big
Codec ID : A_DTS
Duration : 1 h 19 min
Bit rate mode : Constant
Bit rate : 1 509 kb/s
Channel(s : 6 channels
Channel positions : Front: L C R, Side: L R, LFE
Sampling rate : 48.0 kHz
Frame rate : 93.750 FPS (512 SPF)
Bit depth : 24 bits
Compression mode : Lossy
Stream size : 859 MiB (20%)
Title : English
Language : English
Default : No
Forced : No

Menu
00:00:00.000 : en:00:00:00.000
00:08:52.040 : en:00:08:52.040
00:13:58.440 : en:00:13:58.440
00:22:42.160 : en:00:22:42.160
00:29:21.680 : en:00:29:21.680
00:38:26.160 : en:00:38:26.160
00:44:16.280 : en:00:44:16.280
00:49:01.600 : en:00:49:01.600
00:56:35.360 : en:00:56:35.360
01:02:26.560 : en:01:02:26.560
01:10:04.000 : en:01:10:04.000
01:14:45.240 : en:01:14:45.240[/url]
[Link nur für registrierte und freigeschaltete Benutzer sichtbar]
Chop.UNCUT.2011.German.DL.720p.BluRay.x264-BluRHD ([Link nur für registrierte und freigeschaltete Benutzer sichtbar])
[Link nur für registrierte und freigeschaltete Benutzer sichtbar]
[url=[Link nur für registrierte und freigeschaltete Benutzer sichtbar]]Chop.UNCUT.2011.German.DL.720p.BluRay.x264-BluRHD ([Link nur für registrierte und freigeschaltete Benutzer sichtbar])
[Link nur für registrierte und freigeschaltete Benutzer sichtbar]
Reups werde ich mehrmals die Woche vornehmen, es kann sein Das sich die Part Größe ändert. zb. 100MB oder 500 ist angegeben, dann könnte es bei einem ReUp 101/152/501MB usw.. sein.(Wenn es für die Moderation Ok ist). Sollten die Files auf verschiedene Hoster denselben Namen habe, sind sie untereinander Kompatibel, ansonsten kein Mirror. Wenn etwas down ist und es als online angezeigt wird, schreibe mir einfach eine PN Antwort und reup versuch garantiert solange ich die Files noch habe. Reupps für ca einen Monat oder bis zum neuen Release TS, Web,BD, Mic, LD, Retail sound.