PDA

Archiv verlassen und diese Seite im Standarddesign anzeigen : Time Of the Gypsies 1988 1080p PCM BDRip AVC x264 - DIDjITAL



didjital
19.11.17, 16:51
Time Of the Gypsies 1988 1080p PCM BDRip AVC x264 - DIDjITAL

[Link nur für registrierte und freigeschaltete Benutzer sichtbar]

Titel: Time Of the Gypsies 1988
Genre: Drama, Komödie
Release: 2017
IMDb: 8,3 ('[Link nur für registrierte und freigeschaltete Benutzer sichtbar]')
Laufzeit: 142 Min
Sprache: Deutsch, Romanes
Video Stream: Blu-Ray
Hoster: Share-online.biz
Parts: 43
Größe: 20,9 GB
Passwort: didjital

Die Zeit der Zigeuner (Serbokroatisch: Дом за вешање, Dom za vešanje – „Ein Zuhause zum Erhängen“) ist ein im Jahre 1988 gedrehter jugoslawischer Film des Regisseurs Emir Kusturica. Fast alle Dialoge des Films werden auf Romanes, der Sprache der Roma gesprochen.

Da seine Mutter schon tot ist, lebt Perhan gemeinsam mit seiner gehbehinderten Schwester Danira und seinem unbeherrschten Onkel Merdžan bei seiner geliebten Großmutter Hatidža. Er möchte Azra heiraten, was ihre Mutter aber nicht erlaubt, da Perhan ein uneheliches Kind eines slowenischen Soldaten und arm ist. Die beiden kommen sich während der Feiern zum Ederlezi am Fluss näher und versprechen sich einander. Ahmed, der „Mann mit dem Geld“, kommt mit seinen Brüdern ins Dorf auf Besuch. Merdžan verliert sogar seine Kleidung beim Kartenspiel mit den Besuchern, macht Schulden und kehrt aufgebracht nach Hause zurück. Er braucht Geld, das ihm von seiner Mutter verwehrt wird, woraufhin er das Holzhaus, in dem sie leben, inmitten eines heftigen Sturmes zerstört.

MediaInfo

General
Unique ID : 90019749668455354884267231264564248345 (0x43B92C53612F1C4324373268FACAFF19)
Complete name : Time Of the Gypsies 1988 1080p PCM BDRip AVC x264 - DIDjITAL
Format : Matroska
Format version : Version 2
File size : 20.9 GiB
Duration : 2h 22mn
Overall bit rate mode : Variable
Overall bit rate : 21.1 Mbps
Encoded date : UTC 2017-11-19 10:17:36
Writing application : MakeMKV v1.10.7 darwin(x64-release)
Writing library : libmakemkv v1.10.7 (1.3.3/1.4.4) darwin(x64-release)

Video
ID : 1
ID in the original source medium : 4113 (0x1011)
Format : AVC
Format/Info : Advanced Video Codec
Format profile : [email protected]
Format settings : CABAC / 4 Ref Frames
Format settings, CABAC : Yes
Format settings, ReFrames : 4 frames
Codec ID : V_MPEG4/ISO/AVC
Duration : 2h 22mn
Bit rate mode : Variable
Bit rate : 17.9 Mbps
Maximum bit rate : 25.0 Mbps
Width : 1 920 pixels
Height : 1 080 pixels
Display aspect ratio : 16:9
Frame rate mode : Constant
Frame rate : 24.000 fps
Color space : YUV
Chroma subsampling : 4:2:0
Bit depth : 8 bits
Scan type : Progressive
Bits/(Pixel*Frame) : 0.361
Stream size : 17.8 GiB (85%)
Language : English
Default : No
Forced : No
Color range : Limited
Color primaries : BT.709
Transfer characteristics : BT.709
Matrix coefficients : BT.709
Original source medium : Blu-ray

Audio #1
ID : 2
ID in the original source medium : 4352 (0x1100)
Format : PCM
Codec ID : A_PCM/INT/LIT
Duration : 2h 21mn
Bit rate mode : Constant
Bit rate : 1 536 Kbps
Channel(s) : 2 channels
Sampling rate : 48.0 KHz
Frame rate : 30.000 fps (1600 SPF)
Bit depth : 16 bits
Stream size : 1.52 GiB (7%)
Title : Stereo
Language : German
Default : Yes
Forced : No
Original source medium : Blu-ray

Audio #2
ID : 3
ID in the original source medium : 4353 (0x1101)
Format : PCM
Codec ID : A_PCM/INT/LIT
Duration : 2h 22mn
Bit rate mode : Constant
Bit rate : 1 536 Kbps
Channel(s) : 2 channels
Sampling rate : 48.0 KHz
Frame rate : 30.000 fps (1600 SPF)
Bit depth : 16 bits
Stream size : 1.52 GiB (7%)
Title : Stereo
Language : rom
Default : No
Forced : No
Original source medium : Blu-ray

Text #1
ID : 4
ID in the original source medium : 4609 (0x1201)
Format : PGS
Codec ID : S_HDMV/PGS
Codec ID/Info : Picture based subtitle format used on BDs/HD-DVDs
Duration : 2h 15mn
Bit rate : 25.5 Kbps
Count of elements : 2368
Stream size : 24.7 MiB (0%)
Language : German
Default : No
Forced : No
Original source medium : Blu-ray

Text #2
ID : 6
ID in the original source medium : 4608 (0x1200)
Format : PGS
Codec ID : S_HDMV/PGS
Codec ID/Info : Picture based subtitle format used on BDs/HD-DVDs
Duration : 1h 32mn
Bit rate : 1 588 bps
Count of elements : 108
Stream size : 1.05 MiB (0%)
Default : No
Forced : No
Original source medium : Blu-ray

Menu
00:00:00.000 : en:Chapter 01
00:12:46.166 : en:Chapter 02
00:25:00.125 : en:Chapter 03
00:42:20.375 : en:Chapter 04
00:54:53.375 : en:Chapter 05
01:08:37.208 : en:Chapter 06
01:24:30.458 : en:Chapter 07
01:31:00.250 : en:Chapter 08
01:39:42.875 : en:Chapter 09
01:50:24.958 : en:Chapter 10
02:09:00.250 : en:Chapter 11
02:19:59.833 : en:Chapter 12


[Link nur für registrierte und freigeschaltete Benutzer sichtbar]
Download [Link nur für registrierte und freigeschaltete Benutzer sichtbar]

Download via share-online.biz ('[Link nur für registrierte und freigeschaltete Benutzer sichtbar]')
Password: didjital