PDA

Archiv verlassen und diese Seite im Standarddesign anzeigen : Fallen Engelsnacht 2016 German DL 720p BluRay x264 - BluRHD



Ghoststage
18.11.17, 09:43
[Link nur für registrierte und freigeschaltete Benutzer sichtbar]
Releasename
Fallen.Engelsnacht.2016.German.DL.720p.BluRay.x264-BluRHD
[Link nur für registrierte und freigeschaltete Benutzer sichtbar]
[Link nur für registrierte und freigeschaltete Benutzer sichtbar]
Titel: Fallen Engelsnacht [Link nur für registrierte und freigeschaltete Benutzer sichtbar] Director: Scott Hicks [Link nur für registrierte und freigeschaltete Benutzer sichtbar] Genre: Fantasy
Laufzeit: 91 Min. [Link nur für registrierte und freigeschaltete Benutzer sichtbar] Sprache/n: Deutsch [Link nur für registrierte und freigeschaltete Benutzer sichtbar] Englisch [Link nur für registrierte und freigeschaltete Benutzer sichtbar]
Video Stream: BD [Link nur für registrierte und freigeschaltete Benutzer sichtbar] Video Format: MPEG-4 H.264 / AVC
Audio Stream: DTS 5.1
Hoster: [Link nur für registrierte und freigeschaltete Benutzer sichtbar] [Link nur für registrierte und freigeschaltete Benutzer sichtbar]
Größe: 3676,1 MB [Link nur für registrierte und freigeschaltete Benutzer sichtbar] Part size: 1000 MB [Link nur für registrierte und freigeschaltete Benutzer sichtbar] Parts: 4 Dateien
Part Größe kann nach einem REUP Stark Variieren.
[Link nur für registrierte und freigeschaltete Benutzer sichtbar]

[Link nur für registrierte und freigeschaltete Benutzer sichtbar]
[Link nur für registrierte und freigeschaltete Benutzer sichtbar]
[Link nur für registrierte und freigeschaltete Benutzer sichtbar]
Lucinda Price ist 17 und den ersten Tag auf dem Sword&Cross-Internat, als sie Daniel Grigori sieht. Einen unglaublich attraktiven, aber auch sehr distanzierten Jungen, dem sie sich unheimlich verbunden fühlt. Daniel behauptet jedoch sie noch nie gesehen zu haben und meidet sie, wo immer er kann. Doch immer wenn Luce etwas Schlimmes widerfährt, sobald die gefährlichen Schatten sie wieder umtanzen, die sie seit ihrer Kindheit umgeben, ist er zur Stelle und rettet ihr mehrfach das Leben. Doch da gibt es auch noch Cam, einen ebenfalls gutaussehenden und geheimnisvollen Jungen, der sehr viel Interesse an Luce zeigt. Erst als sie beginnt in der Vergangenheit zu recherchieren und allmählich beiden Jungs näher kommt, erfährt Lucinda, von welchem Geheimnis sie wirklich umgeben ist...
[Link nur für registrierte und freigeschaltete Benutzer sichtbar]

Duration : 1 h 31 min
Overall bit rate : 5 591 kb/s
Encoded date : UTC 2017-11-17 14:36:05
Writing application : mkvmerge v4.5.0 ('Speed of Light ) gebaut am Feb 1 2011 02:10:32
Writing library : libebml v1.2.0 + libmatroska v1.1.0

Video
ID : 1
Format : AVC
Format/Info : Advanced Video Codec
Format profile : [email protected]
Format settings : CABAC / 4 Ref Frames
Format settings, CABAC : Yes
Format settings, RefFrames : 4 frames
Codec ID : V_MPEG4/ISO/AVC
Duration : 1 h 31 min
Bit rate : 2 578 kb/s
Width : 1 280 pixels
Height : 544 pixels
Display aspect ratio : 2.35:1
Frame rate mode : Constant
Frame rate : 24.000 FPS
Color space : YUV
Chroma subsampling : 4:2:0
Bit depth : 8 bits
Scan type : Progressive
Bits/(Pixel*Frame : 0.154
Stream size : 1.58 GiB (44%)
Writing library : x264 core 148 r2744 b97ae06
Encoding settings : cabac=1 / ref=5 / deblock=1:-1:-1 / analyse=0x3:0x113 / me=umh / subme=7 / psy=1 / psy_rd=1.00:0.15 / mixed_ref=1 / me_range=16 / chroma_me=1 / trellis=2 / 8x8dct=1 / cqm=0 / deadzone=21,11 / fast_pskip=1 / chroma_qp_offset=-3 / threads=17 / lookahead_threads=2 / sliced_threads=0 / nr=0 / decimate=1 / interlaced=0 / bluray_compat=0 / constrained_intra=0 / bframes=3 / b_pyramid=1 / b_adapt=1 / b_bias=0 / direct=3 / weightb=1 / open_gop=0 / weightp=2 / keyint=240 / keyint_min=24 / scenecut=40 / intra_refresh=0 / rc_lookahead=50 / rc=2pass / mbtree=1 / bitrate=2578 / ratetol=1.0 / qcomp=0.60 / qpmin=0 / qpmax=69 / qpstep=4 / cplxblur=20.0 / qblur=0.5 / ip_ratio=1.40 / aq=1:1.00
Default : Yes
Forced : No

Audio #1
ID : 2
Format : DTS
Format/Info : Digital Theater Systems
Mode : 16
Format settings, Endianness : Big
Codec ID : A_DTS
Duration : 1 h 31 min
Bit rate mode : Constant
Bit rate : 1 509 kb/s
Channel(s : 6 channels
Channel positions : Front: L C R, Side: L R, LFE
Sampling rate : 48.0 kHz
Frame rate : 93.750 FPS (512 SPF)
Bit depth : 24 bits
Compression mode : Lossy
Stream size : 992 MiB (27%)
Title : German
Language : German
Default : Yes
Forced : No

Audio #2
ID : 3
Format : DTS
Format/Info : Digital Theater Systems
Mode : 16
Format settings, Endianness : Big
Codec ID : A_DTS
Duration : 1 h 31 min
Bit rate mode : Constant
Bit rate : 1 509 kb/s
Channel(s : 6 channels
Channel positions : Front: L C R, Side: L R, LFE
Sampling rate : 48.0 kHz
Frame rate : 93.750 FPS (512 SPF)
Bit depth : 24 bits
Compression mode : Lossy
Stream size : 992 MiB (27%)
Title : English
Language : English
Default : No
Forced : No

Text #1
ID : 4
Format : VobSub
Muxing mode : zlib
Codec ID : S_VOBSUB
Codec ID/Info : Picture based subtitle format used on DVDs
Title : German forced
Language : German
Default : Yes
Forced : Yes

Text #2
ID : 5
Format : VobSub
Muxing mode : zlib
Codec ID : S_VOBSUB
Codec ID/Info : Picture based subtitle format used on DVDs
Title : German complete
Language : German
Default : No
Forced : No

Menu
00:00:00.000 : en:00:00:00.000
00:08:28.458 : en:00:08:28.458
00:19:57.875 : en:00:19:57.875
00:30:26.458 : en:00:30:26.458
00:39:33.250 : en:00:39:33.250
00:49:44.083 : en:00:49:44.083
01:00:37.917 : en:01:00:37.917
01:10:41.042 : en:01:10:41.042
01:19:24.583 : en:01:19:24.583
01:25:37.542 : en:01:25:37.542[/url]
[Link nur für registrierte und freigeschaltete Benutzer sichtbar]
Fallen.Engelsnacht.2016.German.DL.720p.BluRay.x264-BluRHD ([Link nur für registrierte und freigeschaltete Benutzer sichtbar])
[Link nur für registrierte und freigeschaltete Benutzer sichtbar]
[url=[Link nur für registrierte und freigeschaltete Benutzer sichtbar]]Fallen.Engelsnacht.2016.German.DL.720p.BluRay.x264-BluRHD ([Link nur für registrierte und freigeschaltete Benutzer sichtbar])
[Link nur für registrierte und freigeschaltete Benutzer sichtbar]
Reups werde ich mehrmals die Woche vornehmen, es kann sein Das sich die Part Größe ändert. zb. 100MB oder 500 ist angegeben, dann könnte es bei einem ReUp 101/152/501MB usw.. sein.(Wenn es für die Moderation Ok ist). Sollten die Files auf verschiedene Hoster denselben Namen habe, sind sie untereinander Kompatibel, ansonsten kein Mirror. Wenn etwas down ist und es als online angezeigt wird, schreibe mir einfach eine PN Antwort und reup versuch garantiert solange ich die Files noch habe. Reupps für ca einen Monat oder bis zum neuen Release TS, Web,BD, Mic, LD, Retail sound.

Jennifer_Jareau
18.11.17, 15:23
Fallen Engelsnacht 2016 German DL 720p BluRay x264 - BluRHD

[Link nur für registrierte und freigeschaltete Benutzer sichtbar]


Nach einem rätselhaften Unfall, an dem ihr zu Unrecht die Schuld gegeben wird, landet Lucinda Price (Addison Timlin) auf dem Internat Sword & Cross für schwer erziehbare Jugendliche. Dort lernt sie die freundliche Lehrerin Miss Sophia (Joely Richardson) kennen - und, viel wichtiger: den attraktiven, unnahbaren Daniel (Jeremy Irvine) und den attraktiven, rebellischen Cam (Harrison Gilbertson). Lucinda ist sich sicher, Daniel schon einmal gesehen zu haben, doch er verneint das nicht nur, sondern geht absichtlich auf Distanz zu ihr. Während Luce mehr über ihn und auch die mysteriösen Visionen, die sie immer wieder heimsuchen, herausfindet, entdeckt sie vor allem, dass Daniel und Cam gefallene Engel sind, dazu verdammt, für immer auf der Erde zu wandeln. Außerdem ist das Internat der Mittelpunkt einer Schlacht zwischen Himmel und Hölle.


Genre: Fantasy
IMDB Infos: Fallen ([Link nur für registrierte und freigeschaltete Benutzer sichtbar])
Ton: Englisch/Deutsch (DTS 5.1)
Untertitel: Deutsch
Video: Blu-ray (MPEG-4 H.264 / AVC)
Sample: -
Partgröße: 1023 MB
Parts: 4 Stück
Gesamtgröße: 3.58 GB


NFO:
Duration : 1 h 31 min
Overall bit rate : 5 591 kb/s
Encoded date : UTC 2017-11-17 14:36:05
Writing application : mkvmerge v4.5.0 ('Speed of Light') gebaut am Feb 1 2011
02:10:32
Writing library : libebml v1.2.0 + libmatroska v1.1.0

Video
ID : 1
Format : AVC
Format/Info : Advanced Video Codec
Format profile : [email protected]
Format settings : CABAC / 4 Ref Frames
Format settings, CABAC : Yes
Format settings, RefFrames : 4 frames
Codec ID : V_MPEG4/ISO/AVC
Duration : 1 h 31 min
Bit rate : 2 578 kb/s
Width : 1 280 pixels
Height : 544 pixels
Display aspect ratio : 2.35:1
Frame rate mode : Constant
Frame rate : 24.000 FPS
Color space : YUV
Chroma subsampling : 4:2:0
Bit depth : 8 bits
Scan type : Progressive
Bits/(Pixel*Frame) : 0.154
Stream size : 1.58 GiB (44%)
Writing library : x264 core 148 r2744 b97ae06
Encoding settings : cabac=1 / ref=5 / deblock=1:-1:-1 / analyse=0x3:0x113 /
me=umh / subme=7 / psy=1 / psy_rd=1.00:0.15 / mixed_ref=1 / me_range=16 / chroma_me=1 / trellis=2 /
8x8dct=1 / cqm=0 / deadzone=21,11 / fast_pskip=1 / chroma_qp_offset=-3 / threads=17 /
lookahead_threads=2 / sliced_threads=0 / nr=0 / decimate=1 / interlaced=0 / bluray_compat=0 /
constrained_intra=0 / bframes=3 / b_pyramid=1 / b_adapt=1 / b_bias=0 / direct=3 / weightb=1 /
open_gop=0 / weightp=2 / keyint=240 / keyint_min=24 / scenecut=40 / intra_refresh=0 /
rc_lookahead=50 / rc=2pass / mbtree=1 / bitrate=2578 / ratetol=1.0 / qcomp=0.60 / qpmin=0 / qpmax=69
/ qpstep=4 / cplxblur=20.0 / qblur=0.5 / ip_ratio=1.40 / aq=1:1.00
Default : Yes
Forced : No

Audio #1
ID : 2
Format : DTS
Format/Info : Digital Theater Systems
Mode : 16
Format settings, Endianness : Big
Codec ID : A_DTS
Duration : 1 h 31 min
Bit rate mode : Constant
Bit rate : 1 509 kb/s
Channel(s) : 6 channels
Channel positions : Front: L C R, Side: L R, LFE
Sampling rate : 48.0 kHz
Frame rate : 93.750 FPS (512 SPF)
Bit depth : 24 bits
Compression mode : Lossy
Stream size : 992 MiB (27%)
Title : German
Language : German
Default : Yes
Forced : No

Audio #2
ID : 3
Format : DTS
Format/Info : Digital Theater Systems
Mode : 16
Format settings, Endianness : Big
Codec ID : A_DTS
Duration : 1 h 31 min
Bit rate mode : Constant
Bit rate : 1 509 kb/s
Channel(s) : 6 channels
Channel positions : Front: L C R, Side: L R, LFE
Sampling rate : 48.0 kHz
Frame rate : 93.750 FPS (512 SPF)
Bit depth : 24 bits
Compression mode : Lossy
Stream size : 992 MiB (27%)
Title : English
Language : English
Default : No
Forced : No

Text #1
ID : 4
Format : VobSub
Muxing mode : zlib
Codec ID : S_VOBSUB
Codec ID/Info : Picture based subtitle format used on DVDs
Title : German forced
Language : German
Default : Yes
Forced : Yes

Text #2
ID : 5
Format : VobSub
Muxing mode : zlib
Codec ID : S_VOBSUB
Codec ID/Info : Picture based subtitle format used on DVDs
Title : German complete
Language : German
Default : No
Forced : No

Menu
00:00:00.000 : en:00:00:00.000
00:08:28.458 : en:00:08:28.458
00:19:57.875 : en:00:19:57.875
00:30:26.458 : en:00:30:26.458
00:39:33.250 : en:00:39:33.250
00:49:44.083 : en:00:49:44.083
01:00:37.917 : en:01:00:37.917
01:10:41.042 : en:01:10:41.042
01:19:24.583 : en:01:19:24.583
01:25:37.542 : en:01:25:37.542

Share-online.biz [Link nur für registrierte und freigeschaltete Benutzer sichtbar]
Hier geht es zum Download & bitte auch das - Bedanken - klicken nicht vergessen! ('[Link nur für registrierte und freigeschaltete Benutzer sichtbar]')

Uploaded.net [Link nur für registrierte und freigeschaltete Benutzer sichtbar]
Hier geht es zum Download & bitte auch das - Bedanken - klicken nicht vergessen! ('[Link nur für registrierte und freigeschaltete Benutzer sichtbar]')