PDA

Archiv verlassen und diese Seite im Standarddesign anzeigen : Cheech und Chongs Heisse Traeume 1981 German DL 1080p HDTV x264 - msd



humblebundle
30.10.17, 00:52
Cheech.und.Chongs.Heisse.Traeume.1981.German.DL.10 80p.HDTV.x264-msd
[Link nur für registrierte und freigeschaltete Benutzer sichtbar]

Titel: Cheech und Chongs Heisse Traeume
Genre: Comedy
Laufzeit:
Sprache/n: Englisch, Deutsch
Video Stream: TV-RIP
Audio Stream: Dolby Digital 5.1
Video Codec: MPEG-4 H.264 / AVC
Hoster: Share-online.biz, Rapidgator.net
Größe: 4846.38 MB
Parts: 44 Dateien
Passwort: - wird nicht benötigt -

Süße Träume und Eiscreme passen gut zusammen. Und genau das verkaufen Cheech und Chong in dieser ganz und gar verrückten Komödie. Dieses irre, permanent ausgeflippte Duo verdient genug mit einer "Spezial-Mix"-Eiscreme, um sich die wichtigsten Träume zu erfüllen: Neue Gitarren, Trauminsel-Urlaub und hübsche Mädchen. Aber natürlich geht einiges schief. Als sie es sich in einem chinesischen In-Restaurant gutgehen lassen, trifft Cheech seine frühere Geliebte Donna. Sie nimmt ihn mit in ihr Luxus-Penthouse. Seine süßen Träume werden aber jäh unterbrochen, als er erfährt, dass Donnas Freund, der den Spitznamen "das Tier" hat, auf dem Weg in ihr Schlafzimmer ist. Unterdessen hat Chong unwissentlich das ganze Geld gegen einen wertlosen Bankscheck eingetauscht. Und die einzige Chance, es zurückzubekommen, führt in ein nahegelegenes Irrenhaus...

nfo:


General
Format : Matroska
Format version : Version 4 / Version 2
File size : 4.73 GiB
Duration : 1h 27mn
Overall bit rate : 7 757 Kbps
Encoded date : UTC 2010-02-22 21:41:31
Writing application : mkvmerge v5.9.0 ('On The Loose') built on Dec 9 2012 15:37:01
Writing library : libebml v1.3.0 + libmatroska v1.4.0

Video
ID : 1
Format : AVC
Format/Info : Advanced Video Codec
Format profile : [email protected]
Format settings, CABAC : Yes
Format settings, ReFrames : 4 frames
Codec ID : V_MPEG4/ISO/AVC
Duration : 1h 27mn
Bit rate : 7 027 Kbps
Width : 1 920 pixels
Height : 1 080 pixels
Display aspect ratio : 16:9
Frame rate mode : Constant
Frame rate : 29.970 fps
Color space : YUV
Chroma subsampling : 4:2:0
Bit depth : 8 bits
Scan type : Progressive
Bits/(Pixel*Frame) : 0.113
Stream size : 4.29 GiB (91%)
Writing library : x264 core 129 r2230 1cffe9f
Default : Yes
Forced : No

Audio #1
ID : 2
Format : AC-3
Format/Info : Audio Coding 3
Mode extension : CM (complete main)
Format settings, Endianness : Big
Codec ID : A_AC3
Duration : 1h 27mn
Bit rate mode : Constant
Bit rate : 384 Kbps
Channel(s) : 6 channels
Channel positions : Front: L C R, Side: L R, LFE
Sampling rate : 48.0 KHz
Bit depth : 16 bits
Compression mode : Lossy
Stream size : 240 MiB (5%)
Language : English
Default : No
Forced : No

Audio #2
ID : 3
Format : AC-3
Format/Info : Audio Coding 3
Mode extension : CM (complete main)
Format settings, Endianness : Big
Codec ID : A_AC3
Duration : 1h 27mn
Bit rate mode : Constant
Bit rate : 192 Kbps
Channel(s) : 2 channels
Channel positions : Front: L R
Sampling rate : 48.0 KHz
Bit depth : 16 bits
Compression mode : Lossy
Stream size : 120 MiB (2%)
Language : German
Default : Yes
Forced : No

Text
ID : 4
Format : UTF-8
Codec ID : S_TEXT/UTF8
Codec ID/Info : UTF-8 Plain Text
Language : English
Default : No
Forced : No


Mirror: 1

Share-online.biz [Link nur für registrierte und freigeschaltete Benutzer sichtbar] ([Link nur für registrierte und freigeschaltete Benutzer sichtbar])

Mirror: 2

Rapidgator.net [Link nur für registrierte und freigeschaltete Benutzer sichtbar] ([Link nur für registrierte und freigeschaltete Benutzer sichtbar])