PDA

Archiv verlassen und diese Seite im Standarddesign anzeigen : Krankenschwester des Grauens 2016 GERMAN DL 1080p HDTV h264 - FiLMCHEN



King
19.06.17, 14:46
Info
Das junge Paar Brooke Sarah Butler und Lance Steven Good wird nach einem Autounfall ins Krankenhaus eingeliefert. Als Brooke aufwacht, teilt ihr die Krankenschwester Barb Traci Lords mit, dass Lance schwer verletzt sei. Da Brooke wieder arbeiten muss, engagiert sie die ebenso attraktive wie undurchsichtige Krankenschwester Chloe Lindsay Hartley, um ihren Freund zu pflegen. Leider scheint sich Lances Gesundheitszustand bald zu verschlechtern.

Via ShareLinks


[Link nur für registrierte und freigeschaltete Benutzer sichtbar] ([Link nur für registrierte und freigeschaltete Benutzer sichtbar])

[Link nur für registrierte und freigeschaltete Benutzer sichtbar] z ([Link nur für registrierte und freigeschaltete Benutzer sichtbar])

Krankenschwester.des.Grauens.2016.GERMAN.DL.1080p. HDTV.h264-FiLMCHEN



[Link nur für registrierte und freigeschaltete Benutzer sichtbar]
Dauer: 1h 24min | Format: mkv | Größe: 2538 MB




Via FileCrypt



[Link nur für registrierte und freigeschaltete Benutzer sichtbar] ([Link nur für registrierte und freigeschaltete Benutzer sichtbar])

[Link nur für registrierte und freigeschaltete Benutzer sichtbar] ([Link nur für registrierte und freigeschaltete Benutzer sichtbar])

[Link nur für registrierte und freigeschaltete Benutzer sichtbar] ([Link nur für registrierte und freigeschaltete Benutzer sichtbar])



NfoKrankenschwester des Grauens 2016 GERMAN DL 1080p HDTV h264 FiLMCHEN
Release Information
Date 18 06 2017
Size 2537 57mb
Files 27
Url http www imdb com title tt5176442
File Information
Source HDTV
Duration 1h 20mn
Resolution 1920x1080
Bitrate 3732 Kbps
Audio Track 1 AC3 5 1 384 Kbps German
Audio Track 2 AC3 2 0 192 Kbps English

Via Relink



[Link nur für registrierte und freigeschaltete Benutzer sichtbar] ([Link nur für registrierte und freigeschaltete Benutzer sichtbar])

[Link nur für registrierte und freigeschaltete Benutzer sichtbar] ([Link nur für registrierte und freigeschaltete Benutzer sichtbar])



[Link nur für registrierte und freigeschaltete Benutzer sichtbar]

Checcker
20.06.17, 17:10
Krankenschwester des Grauens
Krankenschwester.des.Grauens.2016.GERMAN.DL.1080p. HDTV.h264-FiLMCHEN

[Link nur für registrierte und freigeschaltete Benutzer sichtbar]


.: Details:.

Genre: Krimi
Laufzeit: 90 Min.
Sprache/n: Deutsch [Link nur für registrierte und freigeschaltete Benutzer sichtbar] English [Link nur für registrierte und freigeschaltete Benutzer sichtbar]
Audio Stream: Dolby Digital 5.1
Video Stream: TV-RIP
Video Codec: MPEG-4 H.264 / AVC
IMDb: 0.0/10 ([Link nur für registrierte und freigeschaltete Benutzer sichtbar])
Trailer: Youtube ([Link nur für registrierte und freigeschaltete Benutzer sichtbar])


.: Beschreibung :.

Das junge Paar Brooke und Lance wird nach einem Autounfall ins Krankenhaus eingeliefert. Als Brooke aufwacht, teilt ihr die Krankenschwester Barb mit, dass Lance schwer verletzt sei. Da Brooke wieder arbeiten muss, engagiert sie die ebenso attraktive wie undurchsichtige Krankenschwester Chloe , um ihren Freund zu pflegen. Leider scheint sich Lances Gesundheitszustand bald zu verschlechtern.


.: NFO :.



Krankenschwester.des.Grauens.2016.GERMAN.DL.1080p. HDTV.h264-FiLMCHEN

Release Information
Date.............: 18.06.2017
Size.............: 2537.57mb
Files............: 27
Url..............: [Link nur für registrierte und freigeschaltete Benutzer sichtbar]

File Information
Source...........: HDTV
Duration.........: 1h 20mn
Resolution.......: 1920x1080
Bitrate..........: 3732 Kbps
Audio Track 1....: AC3 5.1 384 Kbps, German
Audio Track 2....: AC3 2.0 192 Kbps, English

.: Download :.

Größe: 2538 MB | Part/s: 3 Datei/en

[Link nur für registrierte und freigeschaltete Benutzer sichtbar]
[Link nur für registrierte und freigeschaltete Benutzer sichtbar] Online Status
Download über Uploaded.net ([Link nur für registrierte und freigeschaltete Benutzer sichtbar])

[Link nur für registrierte und freigeschaltete Benutzer sichtbar]
[Link nur für registrierte und freigeschaltete Benutzer sichtbar] Online Status
Download über Share-Online.biz ([Link nur für registrierte und freigeschaltete Benutzer sichtbar])


.: Alle Dateien untereinander kompatibel :.
.: Benutzerfreundliche 1000 MB Parts :.
.: Kein Passwort :.
.: Kein Captcha :.

Ghoststage
21.12.17, 19:17
[Link nur für registrierte und freigeschaltete Benutzer sichtbar]
Releasename
Krankenschwester.des.Grauens.2016.GERMAN.DL.1080p. HDTV.h264-FiLMCHEN
[Link nur für registrierte und freigeschaltete Benutzer sichtbar] [Link nur für registrierte und freigeschaltete Benutzer sichtbar]
[Link nur für registrierte und freigeschaltete Benutzer sichtbar]
Titel: Krankenschwester des Grauens [Link nur für registrierte und freigeschaltete Benutzer sichtbar] Director: Craig Moss [Link nur für registrierte und freigeschaltete Benutzer sichtbar] Genre: Crime
Laufzeit: 80 Min. [Link nur für registrierte und freigeschaltete Benutzer sichtbar] Sprache/n: Deutsch [Link nur für registrierte und freigeschaltete Benutzer sichtbar] Englisch [Link nur für registrierte und freigeschaltete Benutzer sichtbar]
Video Stream: TV-RIP [Link nur für registrierte und freigeschaltete Benutzer sichtbar] Video Format: MPEG-4 H.264 / AVC
Audio Stream: Dolby Digital 5.1
Hoster: [Link nur für registrierte und freigeschaltete Benutzer sichtbar] [Link nur für registrierte und freigeschaltete Benutzer sichtbar]
Größe: 2537,58 MB [Link nur für registrierte und freigeschaltete Benutzer sichtbar] Part size: 1000 MB [Link nur für registrierte und freigeschaltete Benutzer sichtbar] Parts: 3 Dateien
JDownloader WinRar 5 Plugin Google nach Public Betatest for RAR5 support.
[Link nur für registrierte und freigeschaltete Benutzer sichtbar]

[Link nur für registrierte und freigeschaltete Benutzer sichtbar]
[Link nur für registrierte und freigeschaltete Benutzer sichtbar]
[Link nur für registrierte und freigeschaltete Benutzer sichtbar]
Das junge Paar Brooke und Lance wird nach einem Autounfall ins Krankenhaus eingeliefert. Als Brooke aufwacht, teilt ihr die Krankenschwester Barb mit, dass Lance schwer verletzt sei. Da Brooke wieder arbeiten muss, engagiert sie die ebenso attraktive wie undurchsichtige Krankenschwester Chloe , um ihren Freund zu pflegen. Leider scheint sich Lances Gesundheitszustand bald zu verschlechtern.
[Link nur für registrierte und freigeschaltete Benutzer sichtbar]

Duration : 1 h 20 min
Overall bit rate : 4 395 kb/s
Encoded date : UTC 2017-06-18 16:38:43
Writing application : mkvmerge v12.0.0 ('Trust / Lust ) 64bit
Writing library : libebml v1.3.4 + libmatroska v1.4.5

Video
ID : 1
Format : AVC
Format/Info : Advanced Video Codec
Format profile : [email protected]
Format settings : CABAC / 4 Ref Frames
Format settings, CABAC : Yes
Format settings, ReFrames : 4 frames
Codec ID : V_MPEG4/ISO/AVC
Duration : 1 h 20 min
Bit rate : 3 732 kb/s
Width : 1 920 pixels
Height : 1 080 pixels
Display aspect ratio : 16:9
Frame rate mode : Constant
Frame rate : 25.000 FPS
Standard : Component
Color space : YUV
Chroma subsampling : 4:2:0
Bit depth : 8 bits
Scan type : Interlaced
Scan type, store method : Separated fields
Scan order : Top Field First
Bits/(Pixel*Frame : 0.072
Stream size : 2.10 GiB (85%)
Default : No
Forced : No
Color range : Limited
Color primaries : BT.709
Transfer characteristics : BT.709
Matrix coefficients : BT.709

Audio #1
ID : 2
Format : AC-3
Format/Info : Audio Coding 3
Codec ID : A_AC3
Duration : 1 h 20 min
Bit rate mode : Constant
Bit rate : 384 kb/s
Channel(s : 6 channels
Channel positions : Front: L C R, Side: L R, LFE
Sampling rate : 48.0 kHz
Frame rate : 31.250 FPS (1536 SPF)
Bit depth : 16 bits
Compression mode : Lossy
Stream size : 222 MiB (9%)
Language : German
Service kind : Complete Main
Default : Yes
Forced : No

Audio #2
ID : 3
Format : AC-3
Format/Info : Audio Coding 3
Codec ID : A_AC3
Duration : 1 h 20 min
Bit rate mode : Constant
Bit rate : 192 kb/s
Channel(s : 2 channels
Channel positions : Front: L R
Sampling rate : 48.0 kHz
Frame rate : 31.250 FPS (1536 SPF)
Bit depth : 16 bits
Compression mode : Lossy
Stream size : 111 MiB (4%)
Language : English
Service kind : Complete Main
Default : No
Forced : No[/url]
[Link nur für registrierte und freigeschaltete Benutzer sichtbar]
Krankenschwester.des.Grauens.2016.GERMAN.DL.1080p. HDTV.h264-FiLMCHEN ([Link nur für registrierte und freigeschaltete Benutzer sichtbar])
[Link nur für registrierte und freigeschaltete Benutzer sichtbar]
[url=[Link nur für registrierte und freigeschaltete Benutzer sichtbar]]Krankenschwester.des.Grauens.2016.GERMAN.DL.1080p. HDTV.h264-FiLMCHEN ([Link nur für registrierte und freigeschaltete Benutzer sichtbar])
[Link nur für registrierte und freigeschaltete Benutzer sichtbar]
Reups werde ich mehrmals die Woche vornehmen, es kann sein Das sich die Part Größe ändert. zb. 100MB oder 500 ist angegeben, dann könnte es bei einem ReUp 101/152/501MB usw.. sein.(Wenn es für die Moderation Ok ist). Sollten die Files auf verschiedene Hoster denselben Namen habe, sind sie untereinander Kompatibel, ansonsten kein Mirror. Wenn etwas down ist und es als online angezeigt wird, schreibe mir einfach eine PN Antwort und reup versuch garantiert solange ich die Files noch habe. Reupps für ca einen Monat oder bis zum neuen Release TS, Web,BD, Mic, LD, Retail sound. Es kann mal vorkommen das ein Release falsch getaggt ist daher schaut euch die MediaInfo an. Die Uploader sind nicht für die Video und Ton Qualität verantwortlich. Schaut das Sample an wenn eins vorhanden ist.

Jennifer_Jareau
23.12.17, 10:41
Krankenschwester des Grauens 2016 GERMAN DL 1080p HDTV h264 - FiLMCHEN

[Link nur für registrierte und freigeschaltete Benutzer sichtbar]


Das junge Paar Brooke und Lance wird nach einem Autounfall ins Krankenhaus eingeliefert. Als Brooke aufwacht, teilt ihr die Krankenschwester Barb mit, dass Lance schwer verletzt sei. Da Brooke wieder arbeiten muss, engagiert sie die ebenso attraktive wie undurchsichtige Krankenschwester Chloe , um ihren Freund zu pflegen. Leider scheint sich Lances Gesundheitszustand bald zu verschlechtern.


Genre: Thriller
IMDB Infos: Krankenschwester des Grauens ([Link nur für registrierte und freigeschaltete Benutzer sichtbar])
Ton: Englisch/Deutsch (Dolby Digital 5.1)
Untertitel: -
Video: HDTV (MPEG-4 H.264 / AVC)
Sample: -
Partgröße: 1023 MB
Parts: 3 Stück
Gesamtgröße: 2.47 GB


NFO:
Duration : 1 h 20 min
Overall bit rate : 4 395 kb/s
Encoded date : UTC 2017-06-18 16:38:43
Writing application : mkvmerge v12.0.0 ('Trust / Lust') 64bit
Writing library : libebml v1.3.4 + libmatroska v1.4.5

Video
ID : 1
Format : AVC
Format/Info : Advanced Video Codec
Format profile : [email protected]
Format settings : CABAC / 4 Ref Frames
Format settings, CABAC : Yes
Format settings, ReFrames : 4 frames
Codec ID : V_MPEG4/ISO/AVC
Duration : 1 h 20 min
Bit rate : 3 732 kb/s
Width : 1 920 pixels
Height : 1 080 pixels
Display aspect ratio : 16:9
Frame rate mode : Constant
Frame rate : 25.000 FPS
Standard : Component
Color space : YUV
Chroma subsampling : 4:2:0
Bit depth : 8 bits
Scan type : Interlaced
Scan type, store method : Separated fields
Scan order : Top Field First
Bits/(Pixel*Frame) : 0.072
Stream size : 2.10 GiB (85%)
Default : No
Forced : No
Color range : Limited
Color primaries : BT.709
Transfer characteristics : BT.709
Matrix coefficients : BT.709

Audio #1
ID : 2
Format : AC-3
Format/Info : Audio Coding 3
Codec ID : A_AC3
Duration : 1 h 20 min
Bit rate mode : Constant
Bit rate : 384 kb/s
Channel(s) : 6 channels
Channel positions : Front: L C R, Side: L R, LFE
Sampling rate : 48.0 kHz
Frame rate : 31.250 FPS (1536 SPF)
Bit depth : 16 bits
Compression mode : Lossy
Stream size : 222 MiB (9%)
Language : German
Service kind : Complete Main
Default : Yes
Forced : No

Audio #2
ID : 3
Format : AC-3
Format/Info : Audio Coding 3
Codec ID : A_AC3
Duration : 1 h 20 min
Bit rate mode : Constant
Bit rate : 192 kb/s
Channel(s) : 2 channels
Channel positions : Front: L R
Sampling rate : 48.0 kHz
Frame rate : 31.250 FPS (1536 SPF)
Bit depth : 16 bits
Compression mode : Lossy
Stream size : 111 MiB (4%)
Language : English
Service kind : Complete Main
Default : No
Forced : No

Share-online.biz [Link nur für registrierte und freigeschaltete Benutzer sichtbar]
Hier geht es zum Download & bitte auch das - Bedanken - klicken nicht vergessen! ('[Link nur für registrierte und freigeschaltete Benutzer sichtbar]')

Uploaded.net [Link nur für registrierte und freigeschaltete Benutzer sichtbar]
Hier geht es zum Download & bitte auch das - Bedanken - klicken nicht vergessen! ('[Link nur für registrierte und freigeschaltete Benutzer sichtbar]')