PDA

Archiv verlassen und diese Seite im Standarddesign anzeigen : Edge of Tomorrow 2014 German DL 1080p BluRay x265 - BluRHD



King
30.04.17, 11:59
Info
In einer nicht allzu weit entfernten Zukunft wird die Erde von einer technologisch weit überlegenen Alienrasse den sogenannten Mimics erobert. In unerbittlichen Angriffen legen die Auerirdischen ganze Städte in Schutt und Asche, lassen nichts als Tod und Verderben zurück. Keine Armee der Welt vermag die zerstörerische Kraft aufzuhalten. Major Bill Cage Tom Cruise, der über keinerlei Kampferfahrung verfügt, wird ohne Vorwarnung zu einem Einsatz abkommandiert, der sich als Selbstmordkommando herausstellt. Er stirbt schon nach kurzer Zeit, gerät dabei jedoch unerklärlicherweise in eine Zeitschleife, die ihn den Tag des Gefechts immer wieder aufs Neue erleben lässt. Jede Wiederholung, die er durchlebt, macht ihn zu einem besseren Soldaten. Schon bald kämpft er Seite an Seite mit Rita Vrataski Emily Blunt von den Special Forces und beginnt, neue Hoffnung zu schöpfen. Lässt sich die Erde möglicherweise doch noch rettenNotesEncode im x265 Codec, welcher meist gleiche Qualität bei geringer Gröe bietet. Wird noch nicht von allen Playern unterstützt, darum checkt das Sample.

Via ShareLinks


[Link nur für registrierte und freigeschaltete Benutzer sichtbar] ([Link nur für registrierte und freigeschaltete Benutzer sichtbar])

[Link nur für registrierte und freigeschaltete Benutzer sichtbar] z ([Link nur für registrierte und freigeschaltete Benutzer sichtbar])

Edge.of.Tomorrow.2014.German.DL.1080p.BluRay.x265-BluRHD



[Link nur für registrierte und freigeschaltete Benutzer sichtbar]
Dauer: 113min | Format: mkv | Größe: 5320 MB




Via FileCrypt



[Link nur für registrierte und freigeschaltete Benutzer sichtbar] ([Link nur für registrierte und freigeschaltete Benutzer sichtbar])

[Link nur für registrierte und freigeschaltete Benutzer sichtbar] ([Link nur für registrierte und freigeschaltete Benutzer sichtbar])

[Link nur für registrierte und freigeschaltete Benutzer sichtbar] ([Link nur für registrierte und freigeschaltete Benutzer sichtbar])

[Link nur für registrierte und freigeschaltete Benutzer sichtbar] ([Link nur für registrierte und freigeschaltete Benutzer sichtbar])



NfoAuflösung 1920800
Video Bitrate 3500 Kbps
Audio Deutsch DTS 5 1 1509 Kbps
Audio Englisch DTS 5 1 1509 Kbps
Forced Subs DE VobSubs
Subs DEEN VobSubs

Via Relink



[Link nur für registrierte und freigeschaltete Benutzer sichtbar] ([Link nur für registrierte und freigeschaltete Benutzer sichtbar])

[Link nur für registrierte und freigeschaltete Benutzer sichtbar] ([Link nur für registrierte und freigeschaltete Benutzer sichtbar])



[Link nur für registrierte und freigeschaltete Benutzer sichtbar]

Ghoststage
17.11.17, 18:46
[Link nur für registrierte und freigeschaltete Benutzer sichtbar]
Releasename
Edge.of.Tomorrow.2014.German.DL.1080p.BluRay.x265-BluRHD
[Link nur für registrierte und freigeschaltete Benutzer sichtbar]
[Link nur für registrierte und freigeschaltete Benutzer sichtbar]
Titel: Edge of Tomorrow [Link nur für registrierte und freigeschaltete Benutzer sichtbar] Director: Doug Liman [Link nur für registrierte und freigeschaltete Benutzer sichtbar] Genre: Science Fiction
Laufzeit: 113 Min. [Link nur für registrierte und freigeschaltete Benutzer sichtbar] Sprache/n: Deutsch [Link nur für registrierte und freigeschaltete Benutzer sichtbar] Englisch [Link nur für registrierte und freigeschaltete Benutzer sichtbar]
Video Stream: BD [Link nur für registrierte und freigeschaltete Benutzer sichtbar] Video Format: MPEG-H H.265 / HEVC
Audio Stream: DTS 5.1 [Link nur für registrierte und freigeschaltete Benutzer sichtbar] Notes: KEIN REUP
Hoster: [Link nur für registrierte und freigeschaltete Benutzer sichtbar] [Link nur für registrierte und freigeschaltete Benutzer sichtbar]
Größe: 5447,74 MB [Link nur für registrierte und freigeschaltete Benutzer sichtbar] Part size: 1000 MB [Link nur für registrierte und freigeschaltete Benutzer sichtbar] Parts: 6 Dateien
Part Größe kann nach einem REUP Stark Variieren.
[Link nur für registrierte und freigeschaltete Benutzer sichtbar]


[Link nur für registrierte und freigeschaltete Benutzer sichtbar]
[Link nur für registrierte und freigeschaltete Benutzer sichtbar]
[Link nur für registrierte und freigeschaltete Benutzer sichtbar]
In naher Zukunft fallen die als Mimics bezeichneten Aliens in Schwärmen über die Erde her und legen die Großstädte in Schutt und Asche, was Millionen Menschen das Leben kostet. Keine Armee der Welt kann es mit der Geschwindigkeit, Brutalität und der offensichtlichen Kenntnis zukünftiger Ereignisse aufnehmen, über die die hochgerüsteten Mimic-Fighter und ihre telepathisch versierten Kommandeure verfügen. Doch jetzt haben sich die Streitkräfte der Erde zu einer Allianz zusammengefunden, um sich den Alien-Truppen mit einer letzten Offensive zu stellen - eine zweite Chance werden sie nicht bekommen.

Lt. Col. Bill Cage verfügt über keinerlei Kampferfahrung, als er ohne Vorwarnung degradiert wird: Plötzlich soll er ohne Ausbildung und mit schlechter Ausrüstung an einem Einsatz teilnehmen, den man nur als Selbstmordkommando bezeichnen kann. Cage wird innerhalb weniger Minuten getötet, kann aber auch ein Alpha unschädlich machen. Unbegreiflicherweise erwacht er wieder und erlebt diesen höllischen Tag erneut: Wieder muss er kämpfen und sterben... und dann wiederholt sich alles noch einmal. Durch den Körperkontakt mit dem Alien ist er in eine Zeitschleife geraten, die ihn dazu verdammt, dasselbe grausige Gefecht ständig aufs Neue zu durchleben.

Doch mit jeder Wiederholung gewinnt Cage an Erfahrung, reagiert unerschrockener, cleverer und perfekter auf die Mimics, wobei ihm die Kämpferin Rita Vrataski von den Special Forces tatkräftig unterstützt - sie hat mehr Mimics liquidiert als sonst ein Mensch. Indem sich Cage und Rita dem Kampf gegen die Außerirdischen stellen, ergibt sich aus jedem wiederholten Einsatz eine neue Chance, die Schwachstellen der Alien-Invasoren zu analysieren und so die Erde zu retten.
[Link nur für registrierte und freigeschaltete Benutzer sichtbar]
[Link nur für registrierte und freigeschaltete Benutzer sichtbar]
[Link nur für registrierte und freigeschaltete Benutzer sichtbar]

Duration : 1 h 53 min
Overall bit rate : 6 651 kb/s
Encoded date : UTC 2017-04-26 14:58:18
Writing application : mkvmerge v4.5.0 ('Speed of Light ) gebaut am Feb 1 2011 02:10:32
Writing library : libebml v1.2.0 + libmatroska v1.1.0

Video
ID : 1
Format : HEVC
Format/Info : High Efficiency Video Coding
Format profile : Main@L4@Main
Codec ID : V_MPEGH/ISO/HEVC
Duration : 1 h 53 min
Bit rate : 3 500 kb/s
Width : 1 920 pixels
Height : 800 pixels
Display aspect ratio : 2.40:1
Frame rate mode : Constant
Frame rate : 23.976 (24000/1001) FPS
Color space : YUV
Chroma subsampling : 4:2:0
Bit depth : 8 bits
Bits/(Pixel*Frame : 0.095
Stream size : 2.77 GiB (53%)
Writing library : x265 2.2+2-998d4520d1cf:[Windows][GCC 6.2.0][64 bit] 8bit+10bit+12bit
Encoding settings : cpuid=1049087 / frame-threads=2 / numa-pools=4 / wpp / no-pmode / no-pme / no-psnr / no-ssim / log-level=2 / input-csp=1 / input-res=1920x800 / interlace=0 / total-frames=163264 / level-idc=0 / high-tier=1 / uhd-bd=0 / ref=4 / no-allow-non-conformance / no-repeat-headers / annexb / no-aud / no-hrd / info / hash=0 / no-temporal-layers / open-gop / min-keyint=23 / keyint=250 / bframes=4 / b-adapt=2 / b-pyramid / bframe-bias=0 / rc-lookahead=25 / lookahead-slices=4 / scenecut=40 / no-intra-refresh / ctu=64 / min-cu-size=8 / rect / no-amp / max-tu-size=32 / tu-inter-depth=1 / tu-intra-depth=1 / limit-tu=0 / rdoq-level=2 / signhide / no-tskip / nr-intra=0 / nr-inter=0 / no-constrained-intra / strong-intra-smoothing / max-merge=3 / limit-refs=3 / limit-modes / me=3 / subme=3 / merange=57 / temporal-mvp / weightp / no-weightb / no-analyze-src-pics / deblock=0:0 / sao / no-sao-non-deblock / rd=4 / no-early-skip / rskip / no-fast-intra / no-tskip-fast / no-cu-lossless / no-b-intra / rdpenalty=0 / psy-rd=2.00 / psy-rdoq=1.00 / no-rd-refine / analysis-mode=0 / no-lossless / cbqpoffs=0 / crqpoffs=0 / rc=crf / crf=19.5 / qcomp=0.60 / qpstep=4 / stats-write=0 / stats-read=0 / ipratio=1.40 / pbratio=1.30 / aq-mode=1 / aq-strength=1.00 / cutree / zone-count=0 / no-strict-cbr / qg-size=32 / no-rc-grain / qpmax=69 / qpmin=0 / sar=1 / overscan=0 / videoformat=5 / range=0 / colorprim=2 / transfer=2 / colormatrix=2 / chromaloc=0 / display-window=0 / max-cll=0,0 / min-luma=0 / max-luma=255 / log2-max-poc-lsb=8 / vui-timing-info / vui-hrd-info / slices=1 / opt-qp-pps / opt-ref-list-length-pps / no-multi-pass-opt-rps / scenecut-bias=0.05
Default : Yes
Forced : No

Audio #1
ID : 2
Format : DTS
Format/Info : Digital Theater Systems
Mode : 16
Format settings, Endianness : Big
Codec ID : A_DTS
Duration : 1 h 53 min
Bit rate mode : Constant
Bit rate : 1 509 kb/s
Channel(s : 6 channels
Channel positions : Front: L C R, Side: L R, LFE
Sampling rate : 48.0 kHz
Frame rate : 93.750 FPS (512 SPF)
Bit depth : 16 bits
Compression mode : Lossy
Stream size : 1.20 GiB (23%)
Title : German
Language : German
Default : Yes
Forced : No

Audio #2
ID : 3
Format : DTS
Format/Info : Digital Theater Systems
Mode : 16
Format settings, Endianness : Big
Codec ID : A_DTS
Duration : 1 h 53 min
Bit rate mode : Constant
Bit rate : 1 509 kb/s
Channel(s : 6 channels
Channel positions : Front: L C R, Side: L R, LFE
Sampling rate : 48.0 kHz
Frame rate : 93.750 FPS (512 SPF)
Bit depth : 24 bits
Compression mode : Lossy
Stream size : 1.20 GiB (23%)
Title : English
Language : English
Default : No
Forced : No

Text #1
ID : 4
Format : VobSub
Muxing mode : zlib
Codec ID : S_VOBSUB
Codec ID/Info : Picture based subtitle format used on DVDs
Title : German forced
Language : German
Default : Yes
Forced : Yes

Text #2
ID : 5
Format : VobSub
Muxing mode : zlib
Codec ID : S_VOBSUB
Codec ID/Info : Picture based subtitle format used on DVDs
Title : German complete
Language : German
Default : No
Forced : No

Text #3
ID : 6
Format : VobSub
Muxing mode : zlib
Codec ID : S_VOBSUB
Codec ID/Info : Picture based subtitle format used on DVDs
Title : English complete
Language : English
Default : No
Forced : No

Menu
00:00:00.000 : en:00:00:00.000
00:10:28.169 : en:00:10:28.169
00:17:39.100 : en:00:17:39.100
00:24:50.197 : en:00:24:50.197
00:35:57.947 : en:00:35:57.947
00:46:27.284 : en:00:46:27.284
00:54:34.771 : en:00:54:34.771
01:04:59.562 : en:01:04:59.562
01:12:53.077 : en:01:12:53.077
01:23:08.901 : en:01:23:08.901
01:32:34.132 : en:01:32:34.132
01:42:53.584 : en:01:42:53.584
01:45:46.215 : en:01:45:46.215[/url]
[Link nur für registrierte und freigeschaltete Benutzer sichtbar]
Edge.of.Tomorrow.2014.German.DL.1080p.BluRay.x265-BluRHD ([Link nur für registrierte und freigeschaltete Benutzer sichtbar])
[Link nur für registrierte und freigeschaltete Benutzer sichtbar]
[url=[Link nur für registrierte und freigeschaltete Benutzer sichtbar]]Edge.of.Tomorrow.2014.German.DL.1080p.BluRay.x265-BluRHD ([Link nur für registrierte und freigeschaltete Benutzer sichtbar])
[Link nur für registrierte und freigeschaltete Benutzer sichtbar]
Reups werde ich mehrmals die Woche vornehmen, es kann sein Das sich die Part Größe ändert. zb. 100MB oder 500 ist angegeben, dann könnte es bei einem ReUp 101/152/501MB usw.. sein.(Wenn es für die Moderation Ok ist). Sollten die Files auf verschiedene Hoster denselben Namen habe, sind sie untereinander Kompatibel, ansonsten kein Mirror. Wenn etwas down ist und es als online angezeigt wird, schreibe mir einfach eine PN Antwort und reup versuch garantiert solange ich die Files noch habe. Reupps für ca einen Monat oder bis zum neuen Release TS, Web,BD, Mic, LD, Retail sound.