PDA

Archiv verlassen und diese Seite im Standarddesign anzeigen : Interstellar 2014 German DTS DL 1080p BluRay x264 - LeetHD



once
28.04.17, 19:09
Interstellar.2014.German.DTS.DL.1080p.BluRay.x264-LeetHD



[Link nur für registrierte und freigeschaltete Benutzer sichtbar]


Die Welt stirbt, Rettung scheint unmöglich. Mit einer letzten verzweifelten, Jahre währenden Weltraummission soll das unvermeidbar scheinende Ende doch noch abgewendet werden. An Bord befinden sich nicht nur die besten Wissenschaftler, sondern auch der Familienvater Cooper, dessen Beteiligung unerlässlich ist und der dafür seine zehnjährige Tochter zurücklassen musste. Um die gewaltige Distanz rechtzeitig zu bewältigen, will man Wurmlöcher nutzen. Doch damit beginnen auch die Probleme.


[Link nur für registrierte und freigeschaltete Benutzer sichtbar]



Resolution: 1920x1080
Bitrate: 7277 kbps
Audio German: DTS 5.1 1510 Kbps
Audio Englisch: DTS 5.1 1510 kbps
Subs: German komplett (VobSubs)



[Link nur für registrierte und freigeschaltete Benutzer sichtbar]

Größe: 12,40GB auf 13 Parts aufgeteilt




[Link nur für registrierte und freigeschaltete Benutzer sichtbar] Download per share-online.biz [Link nur für registrierte und freigeschaltete Benutzer sichtbar]
[Link nur für registrierte und freigeschaltete Benutzer sichtbar] ([Link nur für registrierte und freigeschaltete Benutzer sichtbar])

Passwort für relink

Das Rote ist das Passwort
awerfwearwaraw

-RyU-
01.04.19, 00:53
Interstellar.2014.German.DTS.DL.1080p.BluRay.x264-LeetHD

[Link nur für registrierte und freigeschaltete Benutzer sichtbar]


Was Wissenschaftler, Politiker und Aktivisten seit Jahrzehnten prophezeien, ist eingetreten: Die Menschheit steht kurz davor, an einer globalen Nahrungsknappheit zugrunde zu gehen. Die einzige Hoffnung der Weltbevölkerung besteht in einem geheimen Projekt der US-Regierung, das von dem findigen Wissenschaftler Professor Brand geleitet wird. Der Plan sieht vor, eine Expedition in ein anderes Sternensystem zu starten, wo bewohnbare Planeten, Rohstoffe und vor allem Leben vermutet werden. Der Ingenieur und ehemalige NASA-Pilot Cooper und Brands Tochter Amelia führen die Besatzung an, die sich auf eine Reise ins Ungewisse begibt: Wurmlöcher sind so gut wie unerforscht und niemand kann mit Sicherheit sagen, was die Crew auf der anderen Seite erwartet. Ebenso ist unsicher, ob und wann Cooper und Brand wieder auf die Erde zurückkehren. Coopers Kinder, Tochter Murph und Sohn Tom, müssen mit Schwiegervater Donald zurückbleiben und auf seine Wiederkehr hoffen...


Größe: 14,03 GB
Laufzeit: ca. 169 Min.
Format: .mkv
Video Stream: BD
Video Codec: MPEG-4 H.264 / AVC
Audio Stream: DTS 5.1
Sprache: Deutsch, Englisch
Genre: Abenteuer

Details

Avg. Bitrate: 11.5 Mb/s
Aufloesung: 1920 x 804
Video Bitrate: 8 494 kb/s @ AVC
Audio #1: Deutsch DTS 1 509 kb/s (6 Kanaele)
Audio #2: Englisch DTS 1 509 kb/s (6 Kanaele)
Untertitel #1: Deutsch (full)








↓↓DOWNLOAD↓↓

Interstellar Share-online.biz [Link nur für registrierte und freigeschaltete Benutzer sichtbar] ([Link nur für registrierte und freigeschaltete Benutzer sichtbar])
Interstellar Rapidgator.net [Link nur für registrierte und freigeschaltete Benutzer sichtbar] ([Link nur für registrierte und freigeschaltete Benutzer sichtbar])

Winrar Passwort: keines

IMDB 8.6 ([Link nur für registrierte und freigeschaltete Benutzer sichtbar])

noobee
09.04.19, 20:03
Interstellar 2014 German DTS DL 1080p BluRay x264 LeetHD



info


Format : Matroska
Format version : Version 4 / Version 2
File size : 13.6 GiB
Duration : 2h 49mn
Overall bit rate : 11.5 Mbps
Encoded date : UTC 2019-03-28 10:06:01
Writing application : mkvmerge v28.2.0 ('The Awakening') 64-bit
Writing library : libebml v1.3.6 + libmatroska v1.4.9
DURATION : 02:47:46.598000000
NUMBER_OF_FRAMES : 4192
NUMBER_OF_BYTES : 48306779
_STATISTICS_WRITING_APP : mkvmerge v28.2.0 ('The Awakening') 64-bit
_STATISTICS_WRITING_DATE_UTC : 2019-03-28 10:06:01
_STATISTICS_TAGS : BPS DURATION NUMBER_OF_FRAMES NUMBER_OF_BYTES

Video
ID : 1
Format : AVC
Format/Info : Advanced Video Codec
Format profile : [email protected]
Format settings, CABAC : Yes
Format settings, ReFrames : 5 frames
Codec ID : V_MPEG4/ISO/AVC
Duration : 2h 49mn
Bit rate : 8 284 Kbps
Width : 1 920 pixels
Height : 804 pixels
Display aspect ratio : 2.40:1
Frame rate mode : Constant
Frame rate : 23.976 fps
Color space : YUV
Chroma subsampling : 4:2:0
Bit depth : 8 bits
Scan type : Progressive
Bits/(Pixel*Frame) : 0.224
Stream size : 9.78 GiB (72%)
Writing library : x264 core 157 r2935 545de2f
Default : Yes
Forced : No

Audio #1
ID : 2
Format : DTS
Format/Info : Digital Theater Systems
Mode : 16
Format settings, Endianness : Big
Codec ID : A_DTS
Duration : 2h 49mn
Bit rate mode : Constant
Bit rate : 1 509 Kbps
Channel(s) : 6 channels
Channel positions : Front: L C R, Side: L R, LFE
Sampling rate : 48.0 KHz
Bit depth : 24 bits
Compression mode : Lossy
Stream size : 1.78 GiB (13%)
Language : German
Default : Yes
Forced : No

Audio #2
ID : 3
Format : DTS
Format/Info : Digital Theater Systems
Mode : 16
Format settings, Endianness : Big
Codec ID : A_DTS
Duration : 2h 49mn
Bit rate mode : Constant
Bit rate : 1 509 Kbps
Channel(s) : 6 channels
Channel positions : Front: L C R, Side: L R, LFE
Sampling rate : 48.0 KHz
Bit depth : 24 bits
Compression mode : Lossy
Stream size : 1.78 GiB (13%)
Language : English
Default : No
Forced : No

Text
ID : 4
Format : PGS
Muxing mode : zlib
Codec ID : S_HDMV/PGS
Codec ID/Info : The same subtitle format used on BDs/HD-DVDs
Title : complete
Language : German
Default : No
Forced : No

Menu
00:00:00.000 : en:00:00:00.000
00:09:35.491 : en:00:09:35.492
00:17:12.321 : en:00:17:12.323
00:25:00.747 : en:00:25:00.749
00:35:45.390 : en:00:35:45.393
00:42:16.865 : en:00:42:16.868
00:50:19.888 : en:00:50:19.892
00:54:48.072 : en:00:54:48.076
00:58:59.699 : en:00:58:59.703
01:06:15.009 : en:01:06:15.013
01:17:28.180 : en:01:17:28.185
01:25:31.996 : en:01:25:32.002
01:34:31.994 : en:01:34:32.000
01:46:14.695 : en:01:46:14.702
01:55:34.546 : en:01:55:34.553
02:02:14.361 : en:02:02:14.369
02:12:56.836 : en:02:12:56.844
02:20:53.811 : en:02:20:53.820
02:35:12.084 : en:02:35:12.094
02:43:59.820 : en:02:43:59.830


01:28:24.000 : en:6 Months Later?/End Titles




Size.....: 14621 MB
Files....: 28
Hoster...: Share-Online
Pass.....: 1qay2wsx3edc


Download


[Link nur für registrierte und freigeschaltete Benutzer sichtbar]
[Link nur für registrierte und freigeschaltete Benutzer sichtbar]
[Link nur für registrierte und freigeschaltete Benutzer sichtbar]
[Link nur für registrierte und freigeschaltete Benutzer sichtbar]
[Link nur für registrierte und freigeschaltete Benutzer sichtbar]
[Link nur für registrierte und freigeschaltete Benutzer sichtbar]
[Link nur für registrierte und freigeschaltete Benutzer sichtbar]
[Link nur für registrierte und freigeschaltete Benutzer sichtbar]
[Link nur für registrierte und freigeschaltete Benutzer sichtbar]
[Link nur für registrierte und freigeschaltete Benutzer sichtbar]
[Link nur für registrierte und freigeschaltete Benutzer sichtbar]
[Link nur für registrierte und freigeschaltete Benutzer sichtbar]
[Link nur für registrierte und freigeschaltete Benutzer sichtbar]
[Link nur für registrierte und freigeschaltete Benutzer sichtbar]
[Link nur für registrierte und freigeschaltete Benutzer sichtbar]
[Link nur für registrierte und freigeschaltete Benutzer sichtbar]
[Link nur für registrierte und freigeschaltete Benutzer sichtbar]
[Link nur für registrierte und freigeschaltete Benutzer sichtbar]
[Link nur für registrierte und freigeschaltete Benutzer sichtbar]
[Link nur für registrierte und freigeschaltete Benutzer sichtbar]
[Link nur für registrierte und freigeschaltete Benutzer sichtbar]
[Link nur für registrierte und freigeschaltete Benutzer sichtbar]