PDA

Archiv verlassen und diese Seite im Standarddesign anzeigen : Vaiana German AC3 Dubbed 1080p BluRay x264 - TNS



.:Sexmeup:.
19.03.17, 13:38
Vaiana.German.AC3.Dubbed.1080p.BluRay.x264-TNS

[Link nur für registrierte und freigeschaltete Benutzer sichtbar]

[Link nur für registrierte und freigeschaltete Benutzer sichtbar]

Genre: Animation
Große: 3.13 GB
Quelle: BluRay
Video: x264
Sprachen/text: [Link nur für registrierte und freigeschaltete Benutzer sichtbar] Deutsch

[Link nur für registrierte und freigeschaltete Benutzer sichtbar]

Sportlich, flink, temperamentvoll, unfassbar clever und stets dem Motto „geht nicht, gibt’s nicht“ verpflichtet – das ist die 16-jährige Vaiana (Stimme im Original: Auli’i Cravalho/deutsche Stimme: Lina Larissa Strahl), Tochter des Motunui-Häuplings Tui (Stimme im Original: Temuera Morrison). Seit ihrer Geburt hat Vaiana eine ganz besondere Verbindung zum Ozean, weshalb es sie ziemlich stört, dass sich ihre Stammesgenossen mit ihren Booten nie über das nahe Riff hinaustrauen, das ihre Insel umschließt. Doch als ihre Familie schließlich Hilfe braucht, setzt sie die Segel und reist los. Unterwegs trifft sie auf die Halbgott-Legende Maui (Dwayne Johnson/Andreas Bourani), um den sich unzählige Mythen ranken und der zum Beispiel ganze Inseln aus dem Meer hieven kann. Begleitet von dem dämlichen Hahn Heihei (Alan Tydik) und dem niedlichen Hausschwein Pua wandeln die Häuplingstochter und Maui auf den Spuren von Vaianas Vorfahren und treffen auf furchterregende Kreaturen...

NFO:


General
Unique ID : 36657970334878845703091296347795459864 (0x1B94117A974BCCF65F4149F94B5F8F18)
Complete name : J:\Vaiana.German.AC3.Dubbed.1080p.BluRay.x264-TNS.mkv
Format : Matroska
Format version : Version 2
File size : 3.13 GiB
Duration : 1h 47mn
Overall bit rate : 4 178 Kbps
Encoded date : UTC 2017-03-19T10:44:05Z
Writing application : HandBrake 0.10.5 2016021100
Writing library : Lavf55.12.0 / Lavf55.12.0

Video
ID : 1
Format : AVC
Format/Info : Advanced Video Codec
Format profile : [email protected]
Format settings, CABAC : Yes
Format settings, ReFrames : 4 frames
Codec ID : V_MPEG4/ISO/AVC
Duration : 1h 47mn
Bit rate : 4 000 Kbps
Width : 1 920 pixels
Height : 804 pixels
Display aspect ratio : 2.40:1
Frame rate mode : Constant
Frame rate : 23.976 (24000/1001) fps
Color space : YUV
Chroma subsampling : 4:2:0
Bit depth : 8 bits
Scan type : Progressive
Bits/(Pixel*Frame) : 0.108
Stream size : 2.90 GiB (93%)
Writing library : x264 core 142 r2479 dd79a61
Encoding settings : cabac=1 / ref=1 / deblock=1:0:0 / analyse=0x1:0x111 / me=hex / subme=2 / psy=1 / psy_rd=1.00:0.00 / mixed_ref=0 / me_range=16 / chroma_me=1 / trellis=0 / 8x8dct=0 / cqm=0 / deadzone=21,11 / fast_pskip=1 / chroma_qp_offset=0 / threads=12 / lookahead_threads=4 / sliced_threads=0 / nr=0 / decimate=1 / interlaced=0 / bluray_compat=0 / constrained_intra=0 / bframes=3 / b_pyramid=2 / b_adapt=1 / b_bias=0 / direct=1 / weightb=1 / open_gop=0 / weightp=1 / keyint=240 / keyint_min=24 / scenecut=40 / intra_refresh=0 / rc_lookahead=10 / rc=abr / mbtree=1 / bitrate=4000 / ratetol=1.0 / qcomp=0.60 / qpmin=0 / qpmax=69 / qpstep=4 / vbv_maxrate=20000 / vbv_bufsize=25000 / nal_hrd=none / filler=0 / ip_ratio=1.40 / aq=1:1.00
Default : Yes
Forced : No
Color range : Limited
Color primaries : BT.709
Transfer characteristics : BT.709
Matrix coefficients : BT.709

Audio
ID : 2
Format : AC-3
Format/Info : Audio Coding 3
Mode extension : CM (complete main)
Format settings, Endianness : Big
Codec ID : A_AC3
Duration : 1h 47mn
Bit rate mode : Constant
Bit rate : 224 Kbps
Channel(s) : 2 channels
Channel positions : Front: L R
Sampling rate : 48.0 KHz
Frame rate : 31.250 fps (1536 spf)
Compression mode : Lossy
Delay relative to video : -5ms
Stream size : 172 MiB (5%)
Title : Stereo
Language : German
Default : Yes
Forced : No


[Link nur für registrierte und freigeschaltete Benutzer sichtbar]

[Link nur für registrierte und freigeschaltete Benutzer sichtbar]

[ 3.13 GB/ 4 Dateien ]

[Link nur für registrierte und freigeschaltete Benutzer sichtbar] Uploaded ([Link nur für registrierte und freigeschaltete Benutzer sichtbar])

[Link nur für registrierte und freigeschaltete Benutzer sichtbar] Share-Online ([Link nur für registrierte und freigeschaltete Benutzer sichtbar])

» Wir hoffen, Sie genießen Sie den Film.

[Link nur für registrierte und freigeschaltete Benutzer sichtbar]

Nur Einmal Gepackt
~~ Mirrors sind kompatibel | Keine Captchas | Keine Passwort ~~