PDA

Archiv verlassen und diese Seite im Standarddesign anzeigen : Pretty Woman 1990 German AC3 1080p BluRay x264 - TNS



.:Sexmeup:.
19.03.17, 12:00
Pretty.Woman.1990.German.AC3.1080p.BluRay.x264-TNS

[Link nur für registrierte und freigeschaltete Benutzer sichtbar]

[Link nur für registrierte und freigeschaltete Benutzer sichtbar]

Genre: Comedy
Große: 3.49 GB
Quelle: BluRay
Video: x264
Sprachen/text: [Link nur für registrierte und freigeschaltete Benutzer sichtbar] Deutsch

[Link nur für registrierte und freigeschaltete Benutzer sichtbar]

Der Spekulant Edward Lewis stolpert bei einer Geschäftsreise in Los Angeles über die naive Prostituierte Vivian. Vivian scheint ihm sympathisch, und so heuert der smarte Millionär das Mädchen für eine Woche als Begleitung an. In dieser Zeit entwickelt sich aus dem Gossengirl eine junge Frau, die nach anfänglichen Schwierigkeiten in der High Society anerkannt wird. Doch auch Edward wandelt sich in Gegenwart der Traumfrau vom Finanzhai zum Finanzier mit sozialem Bewusstsein.

NFO:


General
Unique ID : 279422213808348249838634925422767878496 (0xD236C2C8612092BE94337EF0B1E9B160)
Complete name : J:\Pretty.Woman.1990.German.AC3.1080p.BluRay.x264-TNS.mkv
Format : Matroska
Format version : Version 2
File size : 3.49 GiB
Duration : 1h 59mn
Overall bit rate : 4 182 Kbps
Encoded date : UTC 2017-03-19T02:28:32Z
Writing application : HandBrake 0.10.5 2016021100
Writing library : Lavf55.12.0 / Lavf55.12.0

Video
ID : 1
Format : AVC
Format/Info : Advanced Video Codec
Format profile : [email protected]
Format settings, CABAC : Yes
Format settings, ReFrames : 4 frames
Codec ID : V_MPEG4/ISO/AVC
Duration : 1h 59mn
Bit rate : 4 000 Kbps
Width : 1 920 pixels
Height : 1 040 pixels
Display aspect ratio : 1.85:1
Frame rate mode : Constant
Frame rate : 23.976 (24000/1001) fps
Color space : YUV
Chroma subsampling : 4:2:0
Bit depth : 8 bits
Scan type : Progressive
Bits/(Pixel*Frame) : 0.084
Stream size : 3.24 GiB (93%)
Writing library : x264 core 142 r2479 dd79a61
Encoding settings : cabac=1 / ref=1 / deblock=1:0:0 / analyse=0x1:0x111 / me=hex / subme=2 / psy=1 / psy_rd=1.00:0.00 / mixed_ref=0 / me_range=16 / chroma_me=1 / trellis=0 / 8x8dct=0 / cqm=0 / deadzone=21,11 / fast_pskip=1 / chroma_qp_offset=0 / threads=12 / lookahead_threads=4 / sliced_threads=0 / nr=0 / decimate=1 / interlaced=0 / bluray_compat=0 / constrained_intra=0 / bframes=3 / b_pyramid=2 / b_adapt=1 / b_bias=0 / direct=1 / weightb=1 / open_gop=0 / weightp=1 / keyint=240 / keyint_min=24 / scenecut=40 / intra_refresh=0 / rc_lookahead=10 / rc=abr / mbtree=1 / bitrate=4000 / ratetol=1.0 / qcomp=0.60 / qpmin=0 / qpmax=69 / qpstep=4 / vbv_maxrate=20000 / vbv_bufsize=25000 / nal_hrd=none / filler=0 / ip_ratio=1.40 / aq=1:1.00
Default : Yes
Forced : No
Color range : Limited
Color primaries : BT.709
Transfer characteristics : BT.709
Matrix coefficients : BT.709

Audio
ID : 2
Format : AC-3
Format/Info : Audio Coding 3
Mode extension : CM (complete main)
Format settings, Endianness : Big
Codec ID : A_AC3
Duration : 1h 59mn
Bit rate mode : Constant
Bit rate : 224 Kbps
Channel(s) : 6 channels
Channel positions : Front: L C R, Side: L R, LFE
Sampling rate : 48.0 KHz
Frame rate : 31.250 fps (1536 spf)
Compression mode : Lossy
Delay relative to video : -5ms
Stream size : 192 MiB (5%)
Title : Surround
Language : German
Default : Yes
Forced : No


[Link nur für registrierte und freigeschaltete Benutzer sichtbar]

[Link nur für registrierte und freigeschaltete Benutzer sichtbar]

[ 3.49 GB/ 4 Dateien ]

[Link nur für registrierte und freigeschaltete Benutzer sichtbar] Uploaded ([Link nur für registrierte und freigeschaltete Benutzer sichtbar])

[Link nur für registrierte und freigeschaltete Benutzer sichtbar] Share-Online ([Link nur für registrierte und freigeschaltete Benutzer sichtbar])

» Wir hoffen, Sie genießen Sie den Film.

[Link nur für registrierte und freigeschaltete Benutzer sichtbar]

Nur Einmal Gepackt
~~ Mirrors sind kompatibel | Keine Captchas | Keine Passwort ~~