PDA

Archiv verlassen und diese Seite im Standarddesign anzeigen : Schweinskopf al dente 2016 German DTS 1080p BluRay x264 - CiNEDOME



PUNISH
20.02.17, 09:31
Schweinskopf al dente

Schweinskopf.al.dente.2016.German.DTS.1080p.BluRay .x264-CiNEDOME

[Link nur für registrierte und freigeschaltete Benutzer sichtbar]

Beschreibung

Provinzpolizist Franz Eberhofer ist in existentiellen Nöten: Dauerliebe Susi ist nach Italien abgehauen und in Niederkaltenkirchen sinnt ein entflohener Psychopath auf Rache. Franz' Chef Moratschek kriegt die Panik, als er einen blutigen Schweinskopf in seinem Bett vorfindet. Franz muss sich fortan als sein Bodyguard bewähren, während Oma und Papa alle zu einer Italienreise verdonnern, um die Susi aus den Fängen ihres italienischen Liebhabers zu befreien.


Release NFO


RLS DATE.......: 20.02.2017
GENRE..........: Comedy, Crime
FSK............: 12
SiZE...........: 5.96 GB
RUNTiME........: 1h:35 min

VIDEO..........: 1920 x 1040 @ 7.4 Mbps
AUDiO..........: DE DTS 6CH @ 1509 Kbps
SUBS...........: DE komplett

iMDB...........: [Link nur für registrierte und freigeschaltete Benutzer sichtbar]
RATiNG.........: 6.5/10






[Link nur für registrierte und freigeschaltete Benutzer sichtbar] Sprache: Deutsch [Link nur für registrierte und freigeschaltete Benutzer sichtbar]
Video Stream: BD Video Codec: MKV / H.264 Audio Stream: DTS 5.1
Hoster: Uploaded.net, Share-online.biz
[iMDB] ([Link nur für registrierte und freigeschaltete Benutzer sichtbar])

[Link nur für registrierte und freigeschaltete Benutzer sichtbar]

[Link nur für registrierte und freigeschaltete Benutzer sichtbar]

Parts: 41 Größe: 6103.04 MB Laufzeit: 95 Minuten

[Uploaded.net]
Uploaded.net [Link nur für registrierte und freigeschaltete Benutzer sichtbar] ([Link nur für registrierte und freigeschaltete Benutzer sichtbar])
[Share-online.biz]
Share-online.biz [Link nur für registrierte und freigeschaltete Benutzer sichtbar] ([Link nur für registrierte und freigeschaltete Benutzer sichtbar])

WKing
20.02.17, 10:03
Info
Provinzpolizist Franz Eberhofer ist in existentiellen Nöten Dauerliebe Susi ist nach Italien abgehauen und in Niederkaltenkirchen sinnt ein entflohener Psychopath auf Rache. Franz Chef Moratschek kriegt die Panik, als er einen blutigen Schweinskopf in seinem Bett vorfindet. Franz muss sich fortan als sein Bodyguard bewähren, während Oma und Papa alle zu einer Italienreise verdonnern, um die Susi aus den Fängen ihres italienischen Liebhabers zu befreien.

Via ShareLinks


[Link nur für registrierte und freigeschaltete Benutzer sichtbar] ([Link nur für registrierte und freigeschaltete Benutzer sichtbar])

[Link nur für registrierte und freigeschaltete Benutzer sichtbar] z ([Link nur für registrierte und freigeschaltete Benutzer sichtbar])

Schweinskopf.al.dente.2016.German.DTS.1080p.BluRay .x264-CiNEDOME



[Link nur für registrierte und freigeschaltete Benutzer sichtbar]
Dauer: 95 Min. | Format: MKV | Größe: 6103 MB




Via FileCrypt



[Link nur für registrierte und freigeschaltete Benutzer sichtbar] ([Link nur für registrierte und freigeschaltete Benutzer sichtbar])

[Link nur für registrierte und freigeschaltete Benutzer sichtbar] ([Link nur für registrierte und freigeschaltete Benutzer sichtbar])

[Link nur für registrierte und freigeschaltete Benutzer sichtbar] ([Link nur für registrierte und freigeschaltete Benutzer sichtbar])



NfoRLS DATE 20 02 2017
GENRE Comedy Crime
FSK 12
SiZE 5 96 GB
RUNTiME 1h 35 min
VIDEO 1920 x 1040 7 4 Mbps
AUDiO DE DTS 6CH 1509 Kbps
SUBS DE komplett
iMDB http www imdb com title tt4635936
RATiNG 6 5 10



[Link nur für registrierte und freigeschaltete Benutzer sichtbar]

xenouser
20.02.17, 11:39
Schweinskopf al dente

Cover

[Link nur für registrierte und freigeschaltete Benutzer sichtbar]
Schweinskopf.al.dente.2016.German.DTS.1080p.BluRay .x264-CiNEDOME

NFO:

RLS DATE.......: 20.02.2017
GENRE..........: Comedy, Crime
FSK............: 12
SiZE...........: 5.96 GB
RUNTiME........: 1h:35 min

VIDEO..........: 1920 x 1040 @ 7.4 Mbps
AUDiO..........: DE DTS 6CH @ 1509 Kbps
SUBS...........: DE komplett

iMDB...........: [Link nur für registrierte und freigeschaltete Benutzer sichtbar]
RATiNG.........: 6.5/10


Beschreibung:

Susi (Lisa Maria Potthoff) hat endgültig die Nase voll vom ewig unentschiedenen Franz (Sebastian Bezzel) und haut nach Italien, zu ihrem neuen Freund Luca (Gunther Gillian) ab. Während Papa Eberhofer (Eisi Gulp) und die Oma (Enzi Fuchs) einen Roadtrip nach Süden starten, um Susi zurückzuholen, wird Franz als persönlicher Leibwächter von Dienststellenleiter Moratschek (Sigi Zimmerschied) eingespannt, nachdem dieser ei¬nen abgehackten Schweinskopf in seinem Bett findet und nun um sein Leben fürchtet.

Die nach "Dampfnudelblues" und "Winterkartoffelknödel" dritte Krimikomödie um den Dorfpolizisten Franz Eberhofer nach den beliebten Vorlagen von Rita Falk.

Siehe auch:DampfnudelbluesWinterkartoffelknödelSchweinsk opf al dente

kein Passwort

Sprache: Deutsch
Genre: Komödie
Laufzeit: 96 Min.
Größe: 6100 MB
Parts: 12 Dateien

Youtube Trailer ('[Link nur für registrierte und freigeschaltete Benutzer sichtbar]'')


Download:

Uploaded.net
[Link nur für registrierte und freigeschaltete Benutzer sichtbar] ([Link nur für registrierte und freigeschaltete Benutzer sichtbar])

Share-online.biz
[Link nur für registrierte und freigeschaltete Benutzer sichtbar] ([Link nur für registrierte und freigeschaltete Benutzer sichtbar])

Oboom.com
[Link nur für registrierte und freigeschaltete Benutzer sichtbar] ([Link nur für registrierte und freigeschaltete Benutzer sichtbar])

Openload.co
[Link nur für registrierte und freigeschaltete Benutzer sichtbar] ([Link nur für registrierte und freigeschaltete Benutzer sichtbar])

falkefalke
21.02.17, 13:22
Schweinskopf.al.dente.2016.German.DTS.1080p.BluRay .x264-CiNEDOME


[Link nur für registrierte und freigeschaltete Benutzer sichtbar]

Titel: Schweinskopf al dente
Genre: Comedy
Laufzeit: 95 Min.
Sprache/n (Audio): Deutsch
Video Stream: BD
Audio Stream: DTS
Video Codec: MPEG-4 H.264 / AVC

Provinzpolizist Franz Eberhofer ist in existentiellen Nöten: Dauerliebe Susi ist nach Italien abgehauen und in Niederkaltenkirchen sinnt ein entflohener Psychopath auf Rache. Franz' Chef Moratschek kriegt die Panik, als er einen blutigen Schweinskopf in seinem Bett vorfindet. Franz muss sich fortan als sein Bodyguard bewähren, während Oma und Papa alle zu einer Italienreise verdonnern, um die Susi aus den Fängen ihres italienischen Liebhabers zu befreien.

nfo:


RLS DATE.......: 20.02.2017
GENRE..........: Comedy, Crime
FSK............: 12
SiZE...........: 5.96 GB
RUNTiME........: 1h:35 min

VIDEO..........: 1920 x 1040 @ 7.4 Mbps
AUDiO..........: DE DTS 6CH @ 1509 Kbps
SUBS...........: DE komplett

iMDB...........: [Link nur für registrierte und freigeschaltete Benutzer sichtbar]
RATiNG.........: 6.5/10







Hoster:

Uploaded.net / Share-online.biz

Total Size: 6103 MB (7 Parts)

Uploaded.net
[Link nur für registrierte und freigeschaltete Benutzer sichtbar]
Download ([Link nur für registrierte und freigeschaltete Benutzer sichtbar])Share-online.biz
[Link nur für registrierte und freigeschaltete Benutzer sichtbar]
Download ([Link nur für registrierte und freigeschaltete Benutzer sichtbar])

Checcker
21.02.17, 19:32
Schweinskopf al dente
Schweinskopf.al.dente.2016.German.DTS.1080p.BluRay .x264-CiNEDOME

[Link nur für registrierte und freigeschaltete Benutzer sichtbar]


.: Details:.

Genre: Komödie
Laufzeit: 95 Min.
Sprache/n (Audio): Deutsch [Link nur für registrierte und freigeschaltete Benutzer sichtbar]
Audio Stream: DTS 5.1
Video Stream: BD
Video Codec: MPEG-4 H.264 / AVC


.: Beschreibung :.

Provinzpolizist Franz Eberhofer ist in existentiellen Nöten: Dauerliebe Susi ist nach Italien abgehauen und in Niederkaltenkirchen sinnt ein entflohener Psychopath auf Rache. Franz' Chef Moratschek kriegt die Panik, als er einen blutigen Schweinskopf in seinem Bett vorfindet. Franz muss sich fortan als sein Bodyguard bewähren, während Oma und Papa alle zu einer Italienreise verdonnern, um die Susi aus den Fängen ihres italienischen Liebhabers zu befreien.


.: NFO :.


RLS DATE.......: 20.02.2017
GENRE..........: Comedy, Crime
FSK............: 12
SiZE...........: 5.96 GB
RUNTiME........: 1h:35 min

VIDEO..........: 1920 x 1040 @ 7.4 Mbps
AUDiO..........: DE DTS 6CH @ 1509 Kbps
SUBS...........: DE komplett

iMDB...........: [Link nur für registrierte und freigeschaltete Benutzer sichtbar]
RATiNG.........: 6.5/10






.: Download :.

Größe: 6103 MB | Parts: 13 Datei/en

[Link nur für registrierte und freigeschaltete Benutzer sichtbar]
[Link nur für registrierte und freigeschaltete Benutzer sichtbar] Online Status
Download über Uploaded.net ([Link nur für registrierte und freigeschaltete Benutzer sichtbar])

[Link nur für registrierte und freigeschaltete Benutzer sichtbar]
[Link nur für registrierte und freigeschaltete Benutzer sichtbar] Online Status
Download über Share-Online.biz ([Link nur für registrierte und freigeschaltete Benutzer sichtbar])

[Link nur für registrierte und freigeschaltete Benutzer sichtbar]
[Link nur für registrierte und freigeschaltete Benutzer sichtbar] Online Status
Download über Oboom.com ([Link nur für registrierte und freigeschaltete Benutzer sichtbar])


.: Alle Dateien untereinander kompatibel :.
.: Benutzerfreundliche 500 MB Parts :.
.: Kein Passwort :.
.: Kein Captcha :.

Ghoststage
05.01.18, 19:06
[Link nur für registrierte und freigeschaltete Benutzer sichtbar]
Releasename
Schweinskopf.al.dente.2016.German.DTS.1080p.BluRay .x264-CiNEDOME
[Link nur für registrierte und freigeschaltete Benutzer sichtbar]
[Link nur für registrierte und freigeschaltete Benutzer sichtbar]
Titel: Schweinskopf al dente [Link nur für registrierte und freigeschaltete Benutzer sichtbar] Director: Ed Herzog [Link nur für registrierte und freigeschaltete Benutzer sichtbar] Genre: Comedy
Laufzeit: 95 Min. [Link nur für registrierte und freigeschaltete Benutzer sichtbar] Sprache/n: Deutsch [Link nur für registrierte und freigeschaltete Benutzer sichtbar]
Video Stream: BD [Link nur für registrierte und freigeschaltete Benutzer sichtbar] Video Format: MPEG-4 H.264 / AVC
Audio Stream: DTS 5.1
Hoster: [Link nur für registrierte und freigeschaltete Benutzer sichtbar] [Link nur für registrierte und freigeschaltete Benutzer sichtbar]
Größe: 6103,05 MB [Link nur für registrierte und freigeschaltete Benutzer sichtbar] Part size: 1000 MB [Link nur für registrierte und freigeschaltete Benutzer sichtbar] Parts: 7 Dateien
[Link nur für registrierte und freigeschaltete Benutzer sichtbar]

[Link nur für registrierte und freigeschaltete Benutzer sichtbar]
[Link nur für registrierte und freigeschaltete Benutzer sichtbar]
[Link nur für registrierte und freigeschaltete Benutzer sichtbar]
Susi (Lisa Maria Potthoff) hat endgültig die Nase voll vom ewig unentschiedenen Franz (Sebastian Bezzel) und haut nach Italien, zu ihrem neuen Freund Luca (Gunther Gillian) ab. Während Papa Eberhofer (Eisi Gulp) und die Oma (Enzi Fuchs) einen Roadtrip nach Süden starten, um Susi zurückzuholen, wird Franz als persönlicher Leibwächter von Dienststellenleiter Moratschek (Sigi Zimmerschied) eingespannt, nachdem dieser einen abgehackten Schweinskopf in seinem Bett findet und nun um sein Leben fürchtet.

Die nach "Dampfnudelblues" und "Winterkartoffelknödel" dritte Krimikomödie um den Dorfpolizisten Franz Eberhofer nach den beliebten Vorlagen von Rita Falk.
[Link nur für registrierte und freigeschaltete Benutzer sichtbar]

Duration : 1 h 35 min
Overall bit rate mode : Variable
Overall bit rate : 8 944 kb/s
Encoded date : UTC 2017-02-20 07:07:09
Writing application : mkvmerge v9.8.0 ('Kuglblids ) 64bit
Writing library : libebml v1.3.4 + libmatroska v1.4.5

Video
ID : 1
Format : AVC
Format/Info : Advanced Video Codec
Format profile : [email protected]
Format settings : CABAC / 3 Ref Frames
Format settings, CABAC : Yes
Format settings, ReFrames : 3 frames
Codec ID : V_MPEG4/ISO/AVC
Duration : 1 h 35 min
Bit rate mode : Variable
Bit rate : 7 427 kb/s
Maximum bit rate : 15.0 Mb/s
Width : 1 920 pixels
Height : 1 040 pixels
Display aspect ratio : 1.85:1
Frame rate mode : Constant
Frame rate : 24.000 FPS
Color space : YUV
Chroma subsampling : 4:2:0
Bit depth : 8 bits
Scan type : Progressive
Bits/(Pixel*Frame : 0.155
Stream size : 4.95 GiB (83%)
Writing library : x264 core 148 r2744 b97ae06
Encoding settings : cabac=1 / ref=4 / deblock=1:0:0 / analyse=0x3:0x133 / me=umh / subme=9 / psy=1 / psy_rd=1.00:0.00 / mixed_ref=1 / me_range=24 / chroma_me=1 / trellis=2 / 8x8dct=1 / cqm=0 / deadzone=21,11 / fast_pskip=1 / chroma_qp_offset=-2 / threads=12 / lookahead_threads=1 / sliced_threads=0 / slices=4 / nr=0 / decimate=1 / interlaced=0 / bluray_compat=1 / constrained_intra=0 / bframes=3 / b_pyramid=1 / b_adapt=2 / b_bias=0 / direct=3 / weightb=1 / open_gop=1 / weightp=1 / keyint=23 / keyint_min=1 / scenecut=40 / intra_refresh=0 / rc_lookahead=24 / rc=crf / mbtree=0 / crf=18.0 / qcomp=0.60 / qpmin=0 / qpmax=51 / qpstep=4 / vbv_maxrate=15000 / vbv_bufsize=15000 / crf_max=0.0 / nal_hrd=vbr / filler=0 / ip_ratio=1.40 / pb_ratio=1.30 / aq=0
Default : Yes
Forced : No
Color range : Limited
Color primaries : BT.709
Transfer characteristics : BT.709
Matrix coefficients : BT.709

Audio
ID : 2
Format : DTS
Format/Info : Digital Theater Systems
Codec ID : A_DTS
Duration : 1 h 35 min
Bit rate mode : Constant
Bit rate : 1 509 kb/s
Channel(s : 6 channels
Channel positions : Front: L C R, Side: L R, LFE
Sampling rate : 48.0 kHz
Frame rate : 93.750 FPS (512 SPF)
Bit depth : 24 bits
Compression mode : Lossy
Stream size : 1.01 GiB (17%)
Language : German
Default : Yes
Forced : No

Text
ID : 3
Format : VobSub
Muxing mode : zlib
Codec ID : S_VOBSUB
Codec ID/Info : Picture based subtitle format used on DVDs
Duration : 1 h 34 min
Bit rate : 5 692 b/s
Count of elements : 1361
Stream size : 3.86 MiB (0%)
Language : German
Default : Yes
Forced : No[/url]
[Link nur für registrierte und freigeschaltete Benutzer sichtbar]
Schweinskopf.al.dente.2016.German.DTS.1080p.BluRay .x264-CiNEDOME ([Link nur für registrierte und freigeschaltete Benutzer sichtbar])
[Link nur für registrierte und freigeschaltete Benutzer sichtbar]
[url=[Link nur für registrierte und freigeschaltete Benutzer sichtbar]]Schweinskopf.al.dente.2016.German.DTS.1080p.BluRay .x264-CiNEDOME ([Link nur für registrierte und freigeschaltete Benutzer sichtbar])
[Link nur für registrierte und freigeschaltete Benutzer sichtbar]
Reups werde ich mehrmals die Woche vornehmen, es kann sein Das sich die Part Größe ändert. zb. 100MB oder 500 ist angegeben, dann könnte es bei einem ReUp 101/152/501MB usw.. sein.(Wenn es für die Moderation Ok ist). Sollten die Files auf verschiedene Hoster denselben Namen habe, sind sie untereinander Kompatibel, ansonsten kein Mirror. Wenn etwas down ist und es als online angezeigt wird, schreibe mir einfach eine PN Antwort und reup versuch garantiert solange ich die Files noch habe. Reupps für ca einen Monat oder bis zum neuen Release TS, Web,BD, Mic, LD, Retail sound. Es kann mal vorkommen das ein Release falsch getaggt ist daher schaut euch die MediaInfo an. Die Uploader sind nicht für die Video und Ton Qualität verantwortlich. Schaut das Sample an wenn eins vorhanden ist.

rubberkult
06.01.18, 13:48
[Link nur für registrierte und freigeschaltete Benutzer sichtbar]
Releasename
Schweinskopf.al.dente.2016.German.DTS.1080p.BluRay .x264-CiNEDOME
[Link nur für registrierte und freigeschaltete Benutzer sichtbar]
[Link nur für registrierte und freigeschaltete Benutzer sichtbar]
Titel: Schweinskopf al dente [Link nur für registrierte und freigeschaltete Benutzer sichtbar] Director: Ed Herzog [Link nur für registrierte und freigeschaltete Benutzer sichtbar] Genre: Comedy
Laufzeit: 95 Min. [Link nur für registrierte und freigeschaltete Benutzer sichtbar] Sprache/n: Deutsch [Link nur für registrierte und freigeschaltete Benutzer sichtbar]
Video Stream: BD [Link nur für registrierte und freigeschaltete Benutzer sichtbar] Video Format: MPEG-4 H.264 / AVC
Audio Stream: DTS 5.1
Hoster: [Link nur für registrierte und freigeschaltete Benutzer sichtbar] [Link nur für registrierte und freigeschaltete Benutzer sichtbar]
Größe: 6103,05 MB [Link nur für registrierte und freigeschaltete Benutzer sichtbar] Part size: 1000 MB [Link nur für registrierte und freigeschaltete Benutzer sichtbar] Parts: 7 Dateien
[Link nur für registrierte und freigeschaltete Benutzer sichtbar]

[Link nur für registrierte und freigeschaltete Benutzer sichtbar]
[Link nur für registrierte und freigeschaltete Benutzer sichtbar]
[Link nur für registrierte und freigeschaltete Benutzer sichtbar]
Susi (Lisa Maria Potthoff) hat endgültig die Nase voll vom ewig unentschiedenen Franz (Sebastian Bezzel) und haut nach Italien, zu ihrem neuen Freund Luca (Gunther Gillian) ab. Während Papa Eberhofer (Eisi Gulp) und die Oma (Enzi Fuchs) einen Roadtrip nach Süden starten, um Susi zurückzuholen, wird Franz als persönlicher Leibwächter von Dienststellenleiter Moratschek (Sigi Zimmerschied) eingespannt, nachdem dieser einen abgehackten Schweinskopf in seinem Bett findet und nun um sein Leben fürchtet.

Die nach "Dampfnudelblues" und "Winterkartoffelknödel" dritte Krimikomödie um den Dorfpolizisten Franz Eberhofer nach den beliebten Vorlagen von Rita Falk.
[Link nur für registrierte und freigeschaltete Benutzer sichtbar]

Duration : 1 h 35 min
Overall bit rate mode : Variable
Overall bit rate : 8 944 kb/s
Encoded date : UTC 2017-02-20 07:07:09
Writing application : mkvmerge v9.8.0 ('Kuglblids ) 64bit
Writing library : libebml v1.3.4 + libmatroska v1.4.5

Video
ID : 1
Format : AVC
Format/Info : Advanced Video Codec
Format profile : [email protected]
Format settings : CABAC / 3 Ref Frames
Format settings, CABAC : Yes
Format settings, ReFrames : 3 frames
Codec ID : V_MPEG4/ISO/AVC
Duration : 1 h 35 min
Bit rate mode : Variable
Bit rate : 7 427 kb/s
Maximum bit rate : 15.0 Mb/s
Width : 1 920 pixels
Height : 1 040 pixels
Display aspect ratio : 1.85:1
Frame rate mode : Constant
Frame rate : 24.000 FPS
Color space : YUV
Chroma subsampling : 4:2:0
Bit depth : 8 bits
Scan type : Progressive
Bits/(Pixel*Frame : 0.155
Stream size : 4.95 GiB (83%)
Writing library : x264 core 148 r2744 b97ae06
Encoding settings : cabac=1 / ref=4 / deblock=1:0:0 / analyse=0x3:0x133 / me=umh / subme=9 / psy=1 / psy_rd=1.00:0.00 / mixed_ref=1 / me_range=24 / chroma_me=1 / trellis=2 / 8x8dct=1 / cqm=0 / deadzone=21,11 / fast_pskip=1 / chroma_qp_offset=-2 / threads=12 / lookahead_threads=1 / sliced_threads=0 / slices=4 / nr=0 / decimate=1 / interlaced=0 / bluray_compat=1 / constrained_intra=0 / bframes=3 / b_pyramid=1 / b_adapt=2 / b_bias=0 / direct=3 / weightb=1 / open_gop=1 / weightp=1 / keyint=23 / keyint_min=1 / scenecut=40 / intra_refresh=0 / rc_lookahead=24 / rc=crf / mbtree=0 / crf=18.0 / qcomp=0.60 / qpmin=0 / qpmax=51 / qpstep=4 / vbv_maxrate=15000 / vbv_bufsize=15000 / crf_max=0.0 / nal_hrd=vbr / filler=0 / ip_ratio=1.40 / pb_ratio=1.30 / aq=0
Default : Yes
Forced : No
Color range : Limited
Color primaries : BT.709
Transfer characteristics : BT.709
Matrix coefficients : BT.709

Audio
ID : 2
Format : DTS
Format/Info : Digital Theater Systems
Codec ID : A_DTS
Duration : 1 h 35 min
Bit rate mode : Constant
Bit rate : 1 509 kb/s
Channel(s : 6 channels
Channel positions : Front: L C R, Side: L R, LFE
Sampling rate : 48.0 kHz
Frame rate : 93.750 FPS (512 SPF)
Bit depth : 24 bits
Compression mode : Lossy
Stream size : 1.01 GiB (17%)
Language : German
Default : Yes
Forced : No

Text
ID : 3
Format : VobSub
Muxing mode : zlib
Codec ID : S_VOBSUB
Codec ID/Info : Picture based subtitle format used on DVDs
Duration : 1 h 34 min
Bit rate : 5 692 b/s
Count of elements : 1361
Stream size : 3.86 MiB (0%)
Language : German
Default : Yes
Forced : No[/url]
[Link nur für registrierte und freigeschaltete Benutzer sichtbar]
Schweinskopf.al.dente.2016.German.DTS.1080p.BluRay .x264-CiNEDOME ([Link nur für registrierte und freigeschaltete Benutzer sichtbar])
[Link nur für registrierte und freigeschaltete Benutzer sichtbar]
[url=[Link nur für registrierte und freigeschaltete Benutzer sichtbar]]Schweinskopf.al.dente.2016.German.DTS.1080p.BluRay .x264-CiNEDOME ([Link nur für registrierte und freigeschaltete Benutzer sichtbar])
[Link nur für registrierte und freigeschaltete Benutzer sichtbar]
Reups werde ich mehrmals die Woche vornehmen, es kann sein Das sich die Part Größe ändert. zb. 100MB oder 500 ist angegeben, dann könnte es bei einem ReUp 101/152/501MB usw.. sein.(Wenn es für die Moderation Ok ist). Sollten die Files auf verschiedene Hoster denselben Namen habe, sind sie untereinander Kompatibel, ansonsten kein Mirror. Wenn etwas down ist und es als online angezeigt wird, schreibe mir einfach eine PN Antwort und reup versuch garantiert solange ich die Files noch habe. Reupps für ca einen Monat oder bis zum neuen Release TS, Web,BD, Mic, LD, Retail sound. Es kann mal vorkommen das ein Release falsch getaggt ist daher schaut euch die MediaInfo an. Die Uploader sind nicht für die Video und Ton Qualität verantwortlich. Schaut das Sample an wenn eins vorhanden ist.

The structure of the archive is damaged (Error #17540)