PDA

Archiv verlassen und diese Seite im Standarddesign anzeigen : Die schrillen Vier auf Achse 1983 German AC3 DL 1080p BluRay x264 - HQM



Minimax300
09.01.17, 11:18
Die.schrillen.Vier.auf.Achse.1983.German.AC3.DL.10 80p.BluRay.x264-HQM

[Link nur für registrierte und freigeschaltete Benutzer sichtbar]

Titel: Die schrillen Vier auf Achse
Genre: Comedy
Laufzeit: 98 Min.
Sprache/n: Englisch, Deutsch
Video Stream: BD
Audio Stream: Dolby Digital 5.1
Video Codec: MPEG-4 H.264 / AVC
Format: MKV
Größe: 10398,56 MB
Parts: 11 Dateien
Hoster: Uploaded.net, Share-online.biz

NFO:General
Unique ID : 243685720640595956117746921878212408146 (0xB75429A2C89A247BA122A5DBBB057352)
Format : Matroska
Format version : Version 4 / Version 2
File size : 10.2 GiB
Duration : 1 h 38 min
Overall bit rate : 14.8 Mb/s
Movie name : Die schrillen Vier auf Achse
Encoded date : UTC 2016-12-25 17:35:10
Writing application : mkvmerge v9.6.0 ('Slave To Your Mind') 64bit
Writing library : libebml v1.3.4 + libmatroska v1.4.5
Cover : Yes
Attachments : cover.jpg

Video
ID : 1
Format : AVC
Format/Info : Advanced Video Codec
Format profile : High@L4.1
Format settings, CABAC : Yes
Format settings, ReFrames : 4 frames
Codec ID : V_MPEG4/ISO/AVC
Duration : 1 h 38 min
Bit rate : 13.8 Mb/s
Width : 1 920 pixels
Height : 1 080 pixels
Display aspect ratio : 16:9
Frame rate mode : Constant
Frame rate : 23.976 (24000/1001) FPS
Color space : YUV
Chroma subsampling : 4:2:0
Bit depth : 8 bits
Scan type : Progressive
Bits/(Pixel*Frame) : 0.278
Stream size : 9.47 GiB (93%)
Title : Die schrillen Vier auf Achse - HQM
Writing library : x264 core 148 r2638 7599210
Encoding settings : cabac=1 / ref=4 / deblock=1:-2:-2 / analyse=0x3:0x133 / me=umh / subme=10 / psy=1 / psy_rd=1.00:0.15 / mixed_ref=1 / me_range=24 / chroma_me=1 / trellis=2 / 8x8dct=1 / cqm=0 / deadzone=21,11 / fast_pskip=1 / chroma_qp_offset=-3 / threads=6 / lookahead_threads=1 / sliced_threads=0 / nr=0 / decimate=1 / interlaced=0 / bluray_compat=0 / constrained_intra=0 / bframes=8 / b_pyramid=2 / b_adapt=2 / b_bias=0 / direct=3 / weightb=1 / open_gop=0 / weightp=2 / keyint=240 / keyint_min=23 / scenecut=40 / intra_refresh=0 / rc_lookahead=60 / rc=2pass / mbtree=1 / bitrate=13799 / ratetol=1.0 / qcomp=0.60 / qpmin=0 / qpmax=69 / qpstep=4 / cplxblur=20.0 / qblur=0.5 / vbv_maxrate=62500 / vbv_bufsize=78125 / nal_hrd=none / filler=0 / ip_ratio=1.40 / aq=1:1.00
Language : German
Default : Yes
Forced : No

Audio #1
ID : 2
Format : AC-3
Format/Info : Audio Coding 3
Mode extension : CM (complete main)
Format settings, Endianness : Big
Codec ID : A_AC3
Duration : 1 h 38 min
Bit rate mode : Constant
Bit rate : 192 kb/s
Channel(s) : 1 channel
Channel positions : Front: C
Sampling rate : 48.0 kHz
Frame rate : 31.250 FPS (1536 spf)
Bit depth : 16 bits
Compression mode : Lossy
Stream size : 135 MiB (1%)
Title : German AC3 1.0
Language : German
Default : Yes
Forced : No

Audio #2
ID : 3
Format : DTS
Format/Info : Digital Theater Systems
Mode : 16
Format settings, Endianness : Big
Codec ID : A_DTS
Duration : 1 h 38 min
Bit rate mode : Constant
Bit rate : 768 kb/s
Channel(s) : 1 channel
Channel positions : Front: C
Sampling rate : 48.0 kHz
Frame rate : 93.750 FPS (512 spf)
Bit depth : 24 bits
Compression mode : Lossy
Stream size : 540 MiB (5%)
Title : Englisch DTS 1.0
Language : English
Default : No
Forced : No

Text #1
ID : 4
Format : PGS
Muxing mode : zlib
Codec ID : S_HDMV/PGS
Codec ID/Info : Picture based subtitle format used on BDs/HD-DVDs
Duration : 1 h 37 min
Bit rate : 13.2 kb/s
Count of elements : 2764
Stream size : 9.23 MiB (0%)
Title : German Complete
Language : German
Default : No
Forced : No

Text #2
ID : 5
Format : PGS
Muxing mode : zlib
Codec ID : S_HDMV/PGS
Codec ID/Info : Picture based subtitle format used on BDs/HD-DVDs
Duration : 1 h 35 min
Bit rate : 17.0 kb/s
Count of elements : 2828
Stream size : 11.6 MiB (0%)
Title : Englisch Complete
Language : English
Default : No
Forced : No

Menu
00:00:00.000 : en:Chapter 01
00:02:16.594 : en:Chapter 02
00:05:20.820 : en:Chapter 03
00:08:30.718 : en:Chapter 04
00:12:43.179 : en:Chapter 05
00:15:47.029 : en:Chapter 06
00:19:09.773 : en:Chapter 07
00:22:32.142 : en:Chapter 08
00:24:35.348 : en:Chapter 09
00:26:45.729 : en:Chapter 10
00:28:56.401 : en:Chapter 11
00:31:00.817 : en:Chapter 12
00:33:05.400 : en:Chapter 13
00:36:37.403 : en:Chapter 14
00:39:08.929 : en:Chapter 15
00:42:13.739 : en:Chapter 16
00:47:07.783 : en:Chapter 17
00:49:49.194 : en:Chapter 18
00:52:10.085 : en:Chapter 19
00:54:45.240 : en:Chapter 20
00:57:32.282 : en:Chapter 21
00:58:47.857 : en:Chapter 22
01:01:44.617 : en:Chapter 23
01:07:34.717 : en:Chapter 24
01:09:05.057 : en:Chapter 25
01:13:12.721 : en:Chapter 26
01:16:38.385 : en:Chapter 27
01:18:44.594 : en:Chapter 28
01:20:14.017 : en:Chapter 29
01:23:57.115 : en:Chapter 30
01:26:24.554 : en:Chapter 31
01:31:01.038 : en:Chapter 32
01:35:03.197 : en:Chapter 33

Beschreibung:
Den alljährlichen Familienurlaub will Familie Griswold dieses mal im 2.000 Kilometer entfernten Vergnügungspark "Walley World" verbringen und erlebt dabei auf ihrem Trip eine Reihe von Abenteuern. Als sie endlich in Walley World ankommen müssen sie jedoch feststellen, dass der Park wegen Renovierung geschlossen ist. Doch davon lässt sich die Familie nicht beeindrucken und setzt alles daran, einen Tag voller Freuden zu verbringen ...

Passwort:
minimax300
Alle Mirror sind untereinander kompatibel

[Link nur für registrierte und freigeschaltete Benutzer sichtbar]

Relink.to [Link nur für registrierte und freigeschaltete Benutzer sichtbar] ([Link nur für registrierte und freigeschaltete Benutzer sichtbar])
Share-Links.biz ([Link nur für registrierte und freigeschaltete Benutzer sichtbar])

[Link nur für registrierte und freigeschaltete Benutzer sichtbar]

Relink.to [Link nur für registrierte und freigeschaltete Benutzer sichtbar] ([Link nur für registrierte und freigeschaltete Benutzer sichtbar])
Share-Links.biz ([Link nur für registrierte und freigeschaltete Benutzer sichtbar])