PDA

Archiv verlassen und diese Seite im Standarddesign anzeigen : Fortress 1992 GERMAN AC3D DL 1080p BluRay x264 - COOLHD



WKing
12.12.16, 10:23
Info
In den Vereinigten Staaten der Zukunft ist jeder Frau nur ein einziges Kind gestattet. Brennick, der Captain einer Eliteeinheit, und seine Gattin Karen haben gegen diese Auflage verstoen. Sie landen in einem hochmodernen, als absolut ausbruchsicher geltenden HighTechGefängnis. Die Versuche des sadistischen Direktors, das junge Paar psychisch und physisch zu brechen, scheitern jedoch. Brennick startet eine Revolte und kann mit Frau und Kind nach Mexiko entkommen..

Via ShareLinks


[Link nur für registrierte und freigeschaltete Benutzer sichtbar] ([Link nur für registrierte und freigeschaltete Benutzer sichtbar])

[Link nur für registrierte und freigeschaltete Benutzer sichtbar] z ([Link nur für registrierte und freigeschaltete Benutzer sichtbar])

Fortress.1992.GERMAN.AC3D.DL.1080p.BluRay.x264-COOLHD



[Link nur für registrierte und freigeschaltete Benutzer sichtbar]
Dauer: 91 Min. | Format: MKV | Größe: 7310 MB




Via FileCrypt



[Link nur für registrierte und freigeschaltete Benutzer sichtbar] ([Link nur für registrierte und freigeschaltete Benutzer sichtbar])

[Link nur für registrierte und freigeschaltete Benutzer sichtbar] ([Link nur für registrierte und freigeschaltete Benutzer sichtbar])



NfoFortress Die Festung 1992
Release Date 21 06 2014
Genre Action Sci Fi Thriller
Video 1920 x 1080 10 0 Mbps
Audio German AC3 2 0 384 kbps
Audio English AC3 2 0 384 kbps
IMDB Rating 5 8 10 20 745 votes
IMDB URL http www imdb com title tt0106950
Notes wir hatten probleme mit der dts spur daher
liegt der englische ton im ac3 vor

Via Relink



[Link nur für registrierte und freigeschaltete Benutzer sichtbar] ([Link nur für registrierte und freigeschaltete Benutzer sichtbar])

[Link nur für registrierte und freigeschaltete Benutzer sichtbar] ([Link nur für registrierte und freigeschaltete Benutzer sichtbar])



[Link nur für registrierte und freigeschaltete Benutzer sichtbar]

Ghoststage
13.01.18, 19:49
[Link nur für registrierte und freigeschaltete Benutzer sichtbar]
Releasename
Fortress.1992.GERMAN.AC3D.DL.1080p.BluRay.x264-COOLHD
[Link nur für registrierte und freigeschaltete Benutzer sichtbar]
[Link nur für registrierte und freigeschaltete Benutzer sichtbar]
Titel: Fortress [Link nur für registrierte und freigeschaltete Benutzer sichtbar] Director: Stuart Gordon [Link nur für registrierte und freigeschaltete Benutzer sichtbar] Genre: Action
Laufzeit: 91 Min. [Link nur für registrierte und freigeschaltete Benutzer sichtbar] Sprache/n: Deutsch [Link nur für registrierte und freigeschaltete Benutzer sichtbar] Englisch [Link nur für registrierte und freigeschaltete Benutzer sichtbar]
Video Stream: BD [Link nur für registrierte und freigeschaltete Benutzer sichtbar] Video Format: MPEG-4 H.264 / AVC
Audio Stream: Dolby Digital 2.0 [Link nur für registrierte und freigeschaltete Benutzer sichtbar] Notes: KEIN REUP
Hoster: [Link nur für registrierte und freigeschaltete Benutzer sichtbar] [Link nur für registrierte und freigeschaltete Benutzer sichtbar]
Größe: 7310,35 MB [Link nur für registrierte und freigeschaltete Benutzer sichtbar] Part size: 1000 MB [Link nur für registrierte und freigeschaltete Benutzer sichtbar] Parts: 8 Dateien
[Link nur für registrierte und freigeschaltete Benutzer sichtbar]


[Link nur für registrierte und freigeschaltete Benutzer sichtbar]
[Link nur für registrierte und freigeschaltete Benutzer sichtbar]
[Link nur für registrierte und freigeschaltete Benutzer sichtbar]
In den Vereinigten Staaten der Zukunft ist jeder Frau nur ein einziges Kind gestattet. Brennick, der Captain einer Eliteeinheit, und seine Gattin Karen haben gegen diese Auflage verstoßen. Sie landen in einem hochmodernen, als absolut ausbruchsicher geltenden High-Tech-Gefängnis. Die Versuche des sadistischen Direktors, das junge Paar psychisch und physisch zu brechen, scheitern jedoch. Brennick startet eine Revolte und kann mit Frau und Kind nach Mexiko entkommen.

Knallhartes SF-Actionspektakel mit Frauenschwarm und "Highlander" Christopher Lambert in der Rolle des todesmutigen Einzelkämpfers.
[Link nur für registrierte und freigeschaltete Benutzer sichtbar]

Duration : 1 h 31 min
Overall bit rate : 11.2 Mb/s
Movie name : COOLHD
Encoded date : UTC 2014-06-21 09:09:00
Writing application : mkvmerge v7.0.0 ('Where We Going ) 32bit built on Jun 9 2014 15:08:34
Writing library : libebml v1.3.0 + libmatroska v1.4.1

Video
ID : 1
Format : AVC
Format/Info : Advanced Video Codec
Format profile : [email protected]
Format settings : CABAC / 4 Ref Frames
Format settings, CABAC : Yes
Format settings, ReFrames : 4 frames
Codec ID : V_MPEG4/ISO/AVC
Duration : 1 h 31 min
Bit rate : 10.0 Mb/s
Width : 1 920 pixels
Height : 1 080 pixels
Display aspect ratio : 16:9
Frame rate mode : Constant
Frame rate : 25.000 FPS
Original frame rate : 23.976 (24000/1001) FPS
Color space : YUV
Chroma subsampling : 4:2:0
Bit depth : 8 bits
Scan type : Progressive
Bits/(Pixel*Frame : 0.193
Stream size : 6.65 GiB (93%)
Writing library : x264 core 129 r2230 1cffe9f
Encoding settings : cabac=1 / ref=4 / deblock=1:0:0 / analyse=0x3:0x113 / me=umh / subme=8 / psy=1 / psy_rd=1.00:0.00 / mixed_ref=1 / me_range=16 / chroma_me=1 / trellis=1 / 8x8dct=1 / cqm=0 / deadzone=21,11 / fast_pskip=1 / chroma_qp_offset=-2 / threads=12 / lookahead_threads=2 / sliced_threads=0 / nr=0 / decimate=1 / interlaced=0 / bluray_compat=0 / constrained_intra=0 / bframes=3 / b_pyramid=2 / b_adapt=2 / b_bias=0 / direct=3 / weightb=1 / open_gop=0 / weightp=2 / keyint=240 / keyint_min=24 / scenecut=40 / intra_refresh=0 / rc_lookahead=50 / rc=2pass / mbtree=1 / bitrate=10003 / ratetol=1.0 / qcomp=0.60 / qpmin=0 / qpmax=69 / qpstep=4 / cplxblur=20.0 / qblur=0.5 / ip_ratio=1.40 / aq=1:1.00
Default : Yes
Forced : No

Audio #1
ID : 2
Format : AC-3
Format/Info : Audio Coding 3
Codec ID : A_AC3
Duration : 1 h 31 min
Bit rate mode : Constant
Bit rate : 384 kb/s
Channel(s : 2 channels
Channel positions : Front: L R
Sampling rate : 48.0 kHz
Frame rate : 31.250 FPS (1536 SPF)
Bit depth : 16 bits
Compression mode : Lossy
Stream size : 251 MiB (3%)
Language : German
Service kind : Complete Main
Default : Yes
Forced : No

Audio #2
ID : 3
Format : AC-3
Format/Info : Audio Coding 3
Codec ID : A_AC3
Duration : 1 h 31 min
Bit rate mode : Constant
Bit rate : 384 kb/s
Channel(s : 2 channels
Channel positions : Front: L R
Sampling rate : 48.0 kHz
Frame rate : 31.250 FPS (1536 SPF)
Bit depth : 16 bits
Compression mode : Lossy
Stream size : 251 MiB (3%)
Language : English
Service kind : Complete Main
Default : No
Forced : No[/url]
[Link nur für registrierte und freigeschaltete Benutzer sichtbar]
Fortress.1992.GERMAN.AC3D.DL.1080p.BluRay.x264-COOLHD ([Link nur für registrierte und freigeschaltete Benutzer sichtbar])
[Link nur für registrierte und freigeschaltete Benutzer sichtbar]
[url=[Link nur für registrierte und freigeschaltete Benutzer sichtbar]]Fortress.1992.GERMAN.AC3D.DL.1080p.BluRay.x264-COOLHD ([Link nur für registrierte und freigeschaltete Benutzer sichtbar])
[Link nur für registrierte und freigeschaltete Benutzer sichtbar]
Reups werde ich mehrmals die Woche vornehmen, es kann sein Das sich die Part Größe ändert. zb. 100MB oder 500 ist angegeben, dann könnte es bei einem ReUp 101/152/501MB usw.. sein.(Wenn es für die Moderation Ok ist). Sollten die Files auf verschiedene Hoster denselben Namen habe, sind sie untereinander Kompatibel, ansonsten kein Mirror. Wenn etwas down ist und es als online angezeigt wird, schreibe mir einfach eine PN Antwort und reup versuch garantiert solange ich die Files noch habe. Reupps für ca einen Monat oder bis zum neuen Release TS, Web,BD, Mic, LD, Retail sound. Es kann mal vorkommen das ein Release falsch getaggt ist daher schaut euch die MediaInfo an. Die Uploader sind nicht für die Video und Ton Qualität verantwortlich. Schaut das Sample an wenn eins vorhanden ist.