PDA

Archiv verlassen und diese Seite im Standarddesign anzeigen : Misery 1990 DTS DL 1080p BluRay x264 - iND



Minimax300
27.09.14, 16:47
Misery 1990 DTS DL 1080p BluRay x264 - iND

[Link nur für registrierte und freigeschaltete Benutzer sichtbar]

Titel: Misery
Genre: Drama
Laufzeit: 103 Min.
Sprache/n: Englisch, Deutsch
Video Stream: BD
Audio Stream: Stereo
Video Codec: MPEG-4 H.264 / AVC
Format: MKV
Größe: 10381,23 MB
Parts: 11 Dateien
Hoster: Uploaded.net, Share-online.biz

NFO:
General
Unique ID : 204649142847131112465397906881744501484 (0x99F5FDC143F5F9C697E7353E51B47AEC)
Complete name : Misery.mkv
Format : Matroska
Format version : Version 4 / Version 2
File size : 10.1 GiB
Duration : 1h 47mn
Overall bit rate : 13.5 Mbps
Encoded date : UTC 2014-02-11 12:07:20
Writing application : mkvmerge v6.7.0 ('Back to the Ground') 64bit built on Jan 8 2014 15:10:52
Writing library : libebml v1.3.0 + libmatroska v1.4.1
Video
ID : 1
Format : AVC
Format/Info : Advanced Video Codec
Format profile : [email protected]
Format settings, CABAC : Yes
Format settings, ReFrames : 4 frames
Codec ID : V_MPEG4/ISO/AVC
Duration : 1h 47mn
Bit rate : 11.0 Mbps
Width : 1 920 pixels
Height : 1 040 pixels
Display aspect ratio : 1.85:1
Frame rate mode : Constant
Frame rate : 23.976 fps
Color space : YUV
Chroma subsampling : 4:2:0
Bit depth : 8 bits
Scan type : Progressive
Bits/(Pixel*Frame) : 0.229Stream size : 8.22 GiB (81%)
Writing library : x264 core 142 r2389 956c8d8
Encoding settings : cabac=1 / ref=4 / deblock=1:-1:-1 / analyse=0x3:0x133 / me=umh / subme=10 / psy=1 / psy_rd=1.00:0.15 / mixed_ref=1 / me_range=24 / chroma_me=1 / trellis=2 / 8x8dct=1 / cqm=0 / deadzone=21,11 / fast_pskip=1 / chroma_qp_offset=-3 / threads=3 / lookahead_threads=1 / sliced_threads=0 / nr=0 / decimate=1 / interlaced=0 / bluray_compat=0 / constrained_intra=0 / bframes=8 / b_pyramid=2 / b_adapt=2 / b_bias=0 / direct=3 / weightb=1 / open_gop=0 / weightp=2 / keyint=240 / keyint_min=23 / scenecut=40 / intra_refresh=0 / rc_lookahead=60 / rc=crf / mbtree=1 / crf=20.0 / qcomp=0.60 / qpmin=0 / qpmax=69 / qpstep=4 / ip_ratio=1.40 / aq=1:1.00
Default : Yes
Forced : No
Audio #1
ID : 2
Format : DTS
Format/Info : Digital Theater Systems
Mode : 16
Format settings, Endianness : Big
Codec ID : A_DTS
Duration : 1h 47mn
Bit rate mode : Constant
Bit rate : 768 Kbps
Channel count : 6 channels
Channel positions : Front: L C R, Side: L R, LFE
Sampling rate : 48.0 KHz
Bit depth : 24 bits
Compression mode : LossyStream size : 590 MiB (6%)
Language : German
Default : Yes
Forced : No
Audio #2
ID : 3
Format : DTS
Format/Info : Digital Theater Systems
Mode : 16
Format settings, Endianness : Big
Codec ID : A_DTS
Duration : 1h 47mn
Bit rate mode : Constant
Bit rate : 1 509 Kbps
Channel count : 6 channels
Channel positions : Front: L C R, Side: L R, LFE
Sampling rate : 48.0 KHz
Bit depth : 24 bits
Compression mode : LossyStream size : 1.13 GiB (11%)
Language : English
Default : No
Forced : No
Menu
00:00:00.000 : en:Chapter 1
00:04:39.529 : en:Chapter 2
00:08:11.073 : en:Chapter 3
00:09:18.391 : en:Chapter 4
00:10:34.175 : en:Chapter 5
00:12:44.180 : en:Chapter 6
00:15:46.445 : en:Chapter 7
00:16:45.838 : en:Chapter 8
00:19:05.853 : en:Chapter 9
00:21:47.180 : en:Chapter 10
00:24:10.407 : en:Chapter 11
00:25:57.430 : en:Chapter 12
00:27:52.837 : en:Chapter 13
00:32:16.184 : en:Chapter 14
00:40:11.200 : en:Chapter 15
00:49:28.632 : en:Chapter 16
00:57:19.978 : en:Chapter 17
01:00:29.834 : en:Chapter 18
01:02:46.220 : en:Chapter 19
01:06:16.138 : en:Chapter 20
01:09:48.893 : en:Chapter 21
01:17:27.351 : en:Chapter 22
01:23:05.605 : en:Chapter 23
01:33:10.126 : en:Chapter 24
01:36:10.598 : en:Chapter 25
01:39:18.327 : en:Chapter 26
01:41:11.148 : en:Chapter 27
01:42:31.478 : en:Chapter 28
01:47:23.228 : en:Chapter 29
Beschreibung:

Nach der Fertigstellung seines neuen Romans verunglückt Bestsellerautor Paul Sheldon während eines Schneesturms. Annie Wilkes findet den Schwerverletzten und bringt ihn in ihr abgelegenes Haus. Zunächst kümmert sich die ehemalige Krankenschwester rührend um ihn. Schließlich ist sie der größte Fan von Sheldons Schundromanreihe "Misery". Als Annie aber vom Tod ihrer geliebten Heldin in Sheldons eben erschienenem Buch liest, entpuppt sie sich als Psychopathin: Sie zwingt den wehrlosen Paul, Misery ins Leben zurückzuholen. Abgeschnitten von der Außenwelt und den gewalttätigen Launen Annies hilflos ausgeliefert, schmiedet Paul mit Fortschreiten des neuen "Misery"-Buches einen verzweifelten Fluchtplan...

Bestsellerautor Paul Sheldon ist Annie, seiner glühendsten Verehrerin, nach einem Verkehrsunfall hilflos ausgeliefert. Perfekte Mischung aus klassischem Suspense à la Hitchcock und mitleidslosem modernen Horror. Nach einer Vorlage von Stephen King.

Passwort:
minimax300
Alle Mirror sind untereinander kompatibel

[Link nur für registrierte und freigeschaltete Benutzer sichtbar]

Relink.us [Link nur für registrierte und freigeschaltete Benutzer sichtbar] ([Link nur für registrierte und freigeschaltete Benutzer sichtbar])
Share-Links.biz [Link nur für registrierte und freigeschaltete Benutzer sichtbar] ([Link nur für registrierte und freigeschaltete Benutzer sichtbar])

[Link nur für registrierte und freigeschaltete Benutzer sichtbar]

Relink.us [Link nur für registrierte und freigeschaltete Benutzer sichtbar] ([Link nur für registrierte und freigeschaltete Benutzer sichtbar])
Share-Links.biz [Link nur für registrierte und freigeschaltete Benutzer sichtbar] ([Link nur für registrierte und freigeschaltete Benutzer sichtbar])