PDA

Archiv verlassen und diese Seite im Standarddesign anzeigen : The Forest 2016 German DTS DL 720p BluRay x264 - MovieCentral



MovieCentral
24.07.16, 12:18
The Forest

Release: The.Forest.2016.German.DTS.DL.720p.BluRay.x264-MovieCentral

[Link nur für registrierte und freigeschaltete Benutzer sichtbar]

Genre: Horror, Mystery, Thriller | Laufzeit: 93 Min. | Sprache/n: Deutsch, Englisch | IMDb-Link ('[Link nur für registrierte und freigeschaltete Benutzer sichtbar]')

NFO:


Release............. : The.Forest.2016.German.DTS.DL.720p.BluRay.x264-MovieCentral
Titel............... : The Forest
Releasedatum........ : 24.07.2016
Kinostart........... : 04.02.2016
Laufzeit............ : 1h 33min
Video............... : 1280x692 @ 3510 Kbps
Audio............... : Deutsch DTS 5.1 @ 1509 Kbps | Englisch DTS 5.1 @ 1509 Kbps
Subs................ : Deutsch+Englisch Forced | Deutsch Komplett
Groesse............. : 4351 MB
IMDb................ : [Link nur für registrierte und freigeschaltete Benutzer sichtbar]


MediaInfo:

General
Unique ID : 228434112949177602034278658299914332614 (0xABDACF51FDBC3D76BC2E0F2D6CA3A9C6)
Complete name : The.Forest.2016.German.DTS.DL.720p.BluRay.x264-MovieCentral\The.Forest.2016.German.DTS.DL.720p.Bl uRay.x264-MovieCentral.mkv
Format : Matroska
Format version : Version 4 / Version 2
File size : 4.25 GiB
Duration : 1h 33mn
Overall bit rate : 6 540 Kbps
Movie name : The Forest 720p MovieCentral
Encoded date : UTC 2016-07-23 22:23:05
Writing application : mkvmerge v9.2.0 ('Photograph') 64bit
Writing library : libebml v1.3.3 + libmatroska v1.4.4

Video
ID : 1
Format : AVC
Format/Info : Advanced Video Codec
Format profile : [email protected]
Format settings, CABAC : Yes
Format settings, ReFrames : 8 frames
Codec ID : V_MPEG4/ISO/AVC
Duration : 1h 33mn
Bit rate : 3 510 Kbps
Width : 1 280 pixels
Height : 692 pixels
Display aspect ratio : 1.85:1
Frame rate mode : Constant
Frame rate : 23.976 (24000/1001) fps
Color space : YUV
Chroma subsampling : 4:2:0
Bit depth : 8 bits
Scan type : Progressive
Bits/(Pixel*Frame) : 0.165
Stream size : 2.28 GiB (54%)
Writing library : x264 core 148 r2692 64f4e24
Encoding settings : cabac=1 / ref=8 / deblock=1:-1:-1 / analyse=0x3:0x133 / me=umh / subme=9 / psy=1 / psy_rd=1.00:0.15 / mixed_ref=1 / me_range=16 / chroma_me=1 / trellis=2 / 8x8dct=1 / cqm=0 / deadzone=21,11 / fast_pskip=0 / chroma_qp_offset=-3 / threads=22 / lookahead_threads=1 / sliced_threads=0 / nr=0 / decimate=1 / interlaced=0 / bluray_compat=0 / constrained_intra=0 / bframes=3 / b_pyramid=2 / b_adapt=2 / b_bias=0 / direct=3 / weightb=1 / open_gop=0 / weightp=2 / keyint=250 / keyint_min=23 / scenecut=40 / intra_refresh=0 / rc_lookahead=60 / rc=2pass / mbtree=1 / bitrate=3510 / ratetol=1.0 / qcomp=0.60 / qpmin=0 / qpmax=69 / qpstep=4 / cplxblur=20.0 / qblur=0.5 / ip_ratio=1.40 / aq=1:1.00
Default : Yes
Forced : No

Audio #1
ID : 2
Format : DTS
Format/Info : Digital Theater Systems
Mode : 16
Format settings, Endianness : Big
Codec ID : A_DTS
Duration : 1h 33mn
Bit rate mode : Constant
Bit rate : 1 509 Kbps
Channel(s) : 6 channels
Channel positions : Front: L C R, Side: L R, LFE
Sampling rate : 48.0 KHz
Frame rate : 93.750 fps (512 spf)
Bit depth : 24 bits
Compression mode : Lossy
Stream size : 1 004 MiB (23%)
Title : DTS 5.1
Language : German
Default : Yes
Forced : No

Audio #2
ID : 3
Format : DTS
Format/Info : Digital Theater Systems
Mode : 16
Format settings, Endianness : Big
Codec ID : A_DTS
Duration : 1h 33mn
Bit rate mode : Constant
Bit rate : 1 509 Kbps
Channel(s) : 6 channels
Channel positions : Front: L C R, Side: L R, LFE
Sampling rate : 48.0 KHz
Frame rate : 93.750 fps (512 spf)
Bit depth : 24 bits
Compression mode : Lossy
Stream size : 1 004 MiB (23%)
Title : DTS 5.1
Language : English
Default : No
Forced : No

Text #1
ID : 4
Format : PGS
Muxing mode : zlib
Codec ID : S_HDMV/PGS
Codec ID/Info : Picture based subtitle format used on BDs/HD-DVDs
Duration : 44mn 6s
Bit rate : 248 bps
Count of elements : 18
Stream size : 80.2 KiB (0%)
Title : German Forced
Language : German
Default : Yes
Forced : Yes

Text #2
ID : 5
Format : PGS
Muxing mode : zlib
Codec ID : S_HDMV/PGS
Codec ID/Info : Picture based subtitle format used on BDs/HD-DVDs
Duration : 1h 24mn
Bit rate : 12.8 Kbps
Count of elements : 1428
Stream size : 7.74 MiB (0%)
Title : German Complete
Language : German
Default : No
Forced : No

Text #3
ID : 6
Format : PGS
Muxing mode : zlib
Codec ID : S_HDMV/PGS
Codec ID/Info : Picture based subtitle format used on BDs/HD-DVDs
Duration : 19s 979ms
Bit rate : 18.9 Kbps
Count of elements : 10
Stream size : 46.1 KiB (0%)
Title : English Forced
Language : English
Default : No
Forced : No

Menu
00:00:00.000 : en:Chapter 1
00:09:31.696 : en:Chapter 2
00:15:48.072 : en:Chapter 3
00:26:35.052 : en:Chapter 4
00:33:22.918 : en:Chapter 5
00:43:51.379 : en:Chapter 6
00:49:59.872 : en:Chapter 7
00:57:56.390 : en:Chapter 8
01:07:06.606 : en:Chapter 9
01:14:34.178 : en:Chapter 10
01:19:44.405 : en:Chapter 11
01:26:27.265 : en:Chapter 12

Schreckliche Dinge erzählen sich die Menschen über Aokigahara, den berüchtigten Selbstmordwald am Fuße des Fuji. Als die junge Amerikanerin Sara (Natalie Dormer) erfährt, dass ihre Zwillingsschwester Jess dort unter mysteriösen Umständen verschwunden ist, fliegt Sara ohne zu zögern nach Japan und begibt sich sofort auf die Suche. Trotz aller Warnungen, keinesfalls vom Waldweg abzukommen, zieht es Sara immer tiefer ins finstere Dickicht. Dort wird sie mit den gequälten Seelen der Toten konfrontiert, die es auf alle abgesehen haben, die ihren Weg kreuzen ...

Video Stream: BD | Audio Stream: DTS 5.1 | Video Codec: MPEG-4 H.264 / AVC
Hoster: Uploaded.net, Share-online.biz, Rapidgator.net, Openload.co | Größe: 4.25 GB | Parts: 11

[Link nur für registrierte und freigeschaltete Benutzer sichtbar] ('[Link nur für registrierte und freigeschaltete Benutzer sichtbar]')

[Link nur für registrierte und freigeschaltete Benutzer sichtbar] ('[Link nur für registrierte und freigeschaltete Benutzer sichtbar]')

[Link nur für registrierte und freigeschaltete Benutzer sichtbar] ('[Link nur für registrierte und freigeschaltete Benutzer sichtbar]')

[Link nur für registrierte und freigeschaltete Benutzer sichtbar] ('[Link nur für registrierte und freigeschaltete Benutzer sichtbar]')

NatureOne
26.07.16, 12:21
The Forest 2016 German DTS DL 720p BluRay x264-MovieCentral

[Link nur für registrierte und freigeschaltete Benutzer sichtbar]

Schreckliche Dinge erzählen sich die Menschen über Aokigahara, den berüchtigten Selbstmordwald am Fuße des Fuji. Als die junge Amerikanerin Sara (Natalie Dormer) erfährt, dass ihre Zwillingsschwester Jess dort unter mysteriösen Umständen verschwunden ist, fliegt Sara ohne zu zögern nach Japan und begibt sich sofort auf die Suche. Trotz aller Warnungen, keinesfalls vom Waldweg abzukommen, zieht es Sara immer tiefer ins finstere Dickicht. Dort wird sie mit den gequälten Seelen der Toten konfrontiert, die es auf alle abgesehen haben, die ihren Weg kreuzen ...


Genre: Horror, Mystery, Thriller
Laufzeit: 93 Min.
Sprache/n: Deutsch, Englisch
Größe: 4.25 GB
Hoster: Uploaded, Share-Online




Release............. : The.Forest.2016.German.DTS.DL.720p.BluRay.x264-MovieCentral
Titel............... : The Forest
Releasedatum........ : 24.07.2016
Kinostart........... : 04.02.2016
Laufzeit............ : 1h 33min
Video............... : 1280x692 @ 3510 Kbps
Audio............... : Deutsch DTS 5.1 @ 1509 Kbps | Englisch DTS 5.1 @ 1509 Kbps
Subs................ : Deutsch+Englisch Forced | Deutsch Komplett
Groesse............. : 4351 MB
IMDb................ : [Link nur für registrierte und freigeschaltete Benutzer sichtbar]



Uploaded :

Download via uploaded.net [Link nur für registrierte und freigeschaltete Benutzer sichtbar] ([Link nur für registrierte und freigeschaltete Benutzer sichtbar])


Share-Online :

[url=[Link nur für registrierte und freigeschaltete Benutzer sichtbar]]Download via share-online.biz [Link nur für registrierte und freigeschaltete Benutzer sichtbar][/