PDA

Archiv verlassen und diese Seite im Standarddesign anzeigen : Stolz und Vorurteil und Zombies 2016 German AC3D DL 1080p BluRay x264 - MovieCentral



MovieCentral
13.06.16, 10:28
Stolz und Vorurteil & Zombies

Release: Stolz.und.Vorurteil.und.Zombies.2016.German.AC3D.D L.1080p.BluRay.x264-MovieCentral

[Link nur für registrierte und freigeschaltete Benutzer sichtbar]

Genre: Action, Horror, Romance | Laufzeit: 107 Min. | Sprache/n: Deutsch, Englisch | IMDb-Link ('[Link nur für registrierte und freigeschaltete Benutzer sichtbar]')

NFO:


Release............. : Stolz.und.Vorurteil.und.Zombies.2016.German.AC3D.D L.1080p.BluRay.x264-MovieCentral
Titel............... : Stolz und Vorurteil & Zombies
Releasedatum........ : 13.06.2016
Kinostart........... : 09.06.2016
Laufzeit............ : 1h 47min
Video............... : 1920x800 @ 6937 Kbps
Audio............... : Deutsch AC3D 2.0 @ 224 Kbps | Englisch DTS 5.1 @ 1509 Kbps
Subs................ : Deutsch+Englisch Forced | Englisch Komplett
Groesse............. : 6679 MB
IMDb................ : [Link nur für registrierte und freigeschaltete Benutzer sichtbar]


MediaInfo:

General
Unique ID : 227259422499137744857240320194817935007 (0xAAF8929C0AF4144BBC3D68C2E43DC69F)
Complete name : Stolz.und.Vorurteil.und.Zombies.2016.German.AC3D.D L.1080p.BluRay.x264-MovieCentral\Stolz.und.Vorurteil.und.Zombies.2016. German.AC3D.DL.1080p.BluRay.x264-MovieCentral.mkv
Format : Matroska
Format version : Version 4 / Version 2
File size : 6.52 GiB
Duration : 1h 47mn
Overall bit rate : 8 684 Kbps
Movie name : Stolz Dubbed 1080p MovieCentral
Encoded date : UTC 2016-06-12 17:25:10
Writing application : mkvmerge v9.1.0 ('Little Earthquakes') 64bit
Writing library : libebml v1.3.3 + libmatroska v1.4.4

Video
ID : 1
Format : AVC
Format/Info : Advanced Video Codec
Format profile : High@L4.1
Format settings, CABAC : Yes
Format settings, ReFrames : 5 frames
Codec ID : V_MPEG4/ISO/AVC
Duration : 1h 47mn
Bit rate : 6 937 Kbps
Width : 1 920 pixels
Height : 800 pixels
Display aspect ratio : 2.40:1
Frame rate mode : Constant
Frame rate : 23.976 (24000/1001) fps
Color space : YUV
Chroma subsampling : 4:2:0
Bit depth : 8 bits
Scan type : Progressive
Bits/(Pixel*Frame) : 0.188
Stream size : 5.21 GiB (80%)
Writing library : x264 core 148 r2692 64f4e24
Encoding settings : cabac=1 / ref=5 / deblock=1:-1:-1 / analyse=0x3:0x133 / me=umh / subme=9 / psy=1 / psy_rd=1.00:0.15 / mixed_ref=1 / me_range=16 / chroma_me=1 / trellis=2 / 8x8dct=1 / cqm=0 / deadzone=21,11 / fast_pskip=0 / chroma_qp_offset=-3 / threads=25 / lookahead_threads=2 / sliced_threads=0 / nr=0 / decimate=1 / interlaced=0 / bluray_compat=0 / constrained_intra=0 / bframes=3 / b_pyramid=2 / b_adapt=2 / b_bias=0 / direct=3 / weightb=1 / open_gop=0 / weightp=2 / keyint=250 / keyint_min=23 / scenecut=40 / intra_refresh=0 / rc_lookahead=60 / rc=crf / mbtree=1 / crf=17.0 / qcomp=0.60 / qpmin=0 / qpmax=69 / qpstep=4 / ip_ratio=1.40 / aq=1:1.00
Default : Yes
Forced : No

Audio #1
ID : 2
Format : AC-3
Format/Info : Audio Coding 3
Mode extension : CM (complete main)
Format settings, Endianness : Big
Codec ID : A_AC3
Duration : 1h 47mn
Bit rate mode : Constant
Bit rate : 224 Kbps
Channel(s) : 2 channels
Channel positions : Front: L R
Sampling rate : 48.0 KHz
Frame rate : 31.250 fps (1536 spf)
Compression mode : Lossy
Stream size : 172 MiB (3%)
Title : AC3 2.0
Language : German
Default : Yes
Forced : No

Audio #2
ID : 3
Format : DTS
Format/Info : Digital Theater Systems
Mode : 16
Format settings, Endianness : Big
Codec ID : A_DTS
Duration : 1h 47mn
Bit rate mode : Constant
Bit rate : 1 509 Kbps
Channel(s) : 6 channels
Channel positions : Front: L C R, Side: L R, LFE
Sampling rate : 48.0 KHz
Frame rate : 93.750 fps (512 spf)
Bit depth : 16 bits
Compression mode : Lossy
Stream size : 1.13 GiB (17%)
Title : DTS 5.1
Language : English
Default : No
Forced : No

Text #1
ID : 4
Format : UTF-8
Codec ID : S_TEXT/UTF8
Codec ID/Info : UTF-8 Plain Text
Duration : 1mn 57s
Bit rate : 7 bps
Count of elements : 2
Stream size : 116 Bytes (0%)
Title : German Forced
Language : German
Default : Yes
Forced : Yes

Text #2
ID : 5
Format : PGS
Muxing mode : zlib
Codec ID : S_HDMV/PGS
Codec ID/Info : Picture based subtitle format used on BDs/HD-DVDs
Duration : 1mn 57s
Bit rate : 1 131 bps
Count of elements : 4
Stream size : 16.3 KiB (0%)
Title : English Forced
Language : English
Default : No
Forced : No

Text #3
ID : 6
Format : PGS
Muxing mode : zlib
Codec ID : S_HDMV/PGS
Codec ID/Info : Picture based subtitle format used on BDs/HD-DVDs
Duration : 1h 46mn
Bit rate : 10.9 Kbps
Count of elements : 2586
Stream size : 8.33 MiB (0%)
Title : English Complete
Language : English
Default : No
Forced : No

Menu
00:00:00.000 : en:Chapter 01
00:06:41.484 : en:Chapter 02
00:11:50.084 : en:Chapter 03
00:17:59.870 : en:Chapter 04
00:24:06.820 : en:Chapter 05
00:31:52.702 : en:Chapter 06
00:37:43.594 : en:Chapter 07
00:44:21.909 : en:Chapter 08
00:52:06.623 : en:Chapter 09
00:59:28.314 : en:Chapter 10
01:05:45.191 : en:Chapter 11
01:11:16.814 : en:Chapter 12
01:18:40.674 : en:Chapter 13
01:25:03.348 : en:Chapter 14
01:30:18.162 : en:Chapter 15
01:35:49.410 : en:Chapter 16

England, 1811: Das Land ist im Begriff, von einer neuen Zombie-Welle überrannt zu werden. Für Mrs. Bennet besteht jedoch das größere Problem darin, ihre fünf heiratsfähigen Töchter unter die Haube zu bringen. Eine davon ist Liz, die wie der Rest ihrer Schwestern die Kampfkunst der Shaolin beherrscht und eine leidenschaftliche Kämpferin ist. Neben den Zombies ist ihre größte Herausforderung wiederum, der seltsamen Anziehung zu dem Kämpfer Mr. Darcy und dem Charme des manipulativen Mr. Wickham zu widerstehen. Liz und Darcy müssen erst persönliche Vorurteile überwinden, bevor sie im Kampf gegen die Zombies die wahre Liebe füreinander entdecken ...

Video Stream: BD | Audio Stream: AC3D 2.0 | Video Codec: MPEG-4 H.264 / AVC
Hoster: Uploaded.net, Share-online.biz, Rapidgator.net, Openload.co | Größe: 6.67 GB | Parts: 17

[Link nur für registrierte und freigeschaltete Benutzer sichtbar] ('[Link nur für registrierte und freigeschaltete Benutzer sichtbar]')

[Link nur für registrierte und freigeschaltete Benutzer sichtbar] ('[Link nur für registrierte und freigeschaltete Benutzer sichtbar]')

[Link nur für registrierte und freigeschaltete Benutzer sichtbar] ('[Link nur für registrierte und freigeschaltete Benutzer sichtbar]')

[Link nur für registrierte und freigeschaltete Benutzer sichtbar] ('[Link nur für registrierte und freigeschaltete Benutzer sichtbar]')

SP0R
13.06.16, 13:24
Stolz und Vorurteil und Zombies 2016 German AC3D DL 1080p BluRay x264 - MovieCentral

[Link nur für registrierte und freigeschaltete Benutzer sichtbar]

~ Beschreibung ~
England, 1811: Das Land ist im Begriff, von einer neuen Zombie-Welle überrannt zu werden. Für Mrs. Bennet besteht jedoch das größere Problem darin, ihre fünf heiratsfähigen Töchter unter die Haube zu bringen. Eine davon ist Liz, die wie der Rest ihrer Schwestern die Kampfkunst der Shaolin beherrscht und eine leidenschaftliche Kämpferin ist. Neben den Zombies ist ihre größte Herausforderung wiederum, der seltsamen Anziehung zu dem Kämpfer Mr. Darcy und dem Charme des manipulativen Mr. Wickham zu widerstehen. Liz und Darcy müssen erst persönliche Vorurteile überwinden, bevor sie im Kampf gegen die Zombies die wahre Liebe füreinander entdecken ...


~ NFO ~



Release............. : Stolz.und.Vorurteil.und.Zombies.2016.German.AC3D.D L.1080p.BluRay.x264-MovieCentral
Titel............... : Stolz und Vorurteil & Zombies
Releasedatum........ : 13.06.2016
Kinostart........... : 09.06.2016
Laufzeit............ : 1h 47min
Video............... : 1920x800 @ 6937 Kbps
Audio............... : Deutsch AC3D 2.0 @ 224 Kbps | Englisch DTS 5.1 @ 1509 Kbps
Subs................ : Deutsch+Englisch Forced | Englisch Komplett
Groesse............. : 6679 MB
IMDb................ : [Link nur für registrierte und freigeschaltete Benutzer sichtbar]



~ MediaInfo ~



File: Stolz.und.Vorurteil.und.Zombies.2016.German.AC3D.D L.1080p.BluRay.x264-MovieCentral.mkv
Size: 7004148288 bytes (6.52 GiB), duration: 01:47:32, avg.bitrate: 8685 kb/s
Audio: ac3, 48000 Hz, stereo (ger)
Audio: dts, 48000 Hz, 5:1 (eng)
Video: h264, yuv420p, 1920x800, 23.98 fps(r)
Subtitles: ger eng eng





Sprache: Deutsch | Laufzeit: 01:47:32 | Größe: 6.52 GiB | Format: MKV


[Link nur für registrierte und freigeschaltete Benutzer sichtbar]


[Link nur für registrierte und freigeschaltete Benutzer sichtbar]
Stolz und Vorurteil und Zombies 2016 German AC3D DL 1080p BluRay x264 - MovieCentral
[Link nur für registrierte und freigeschaltete Benutzer sichtbar] ([Link nur für registrierte und freigeschaltete Benutzer sichtbar])



[Link nur für registrierte und freigeschaltete Benutzer sichtbar]
Stolz und Vorurteil und Zombies 2016 German AC3D DL 1080p BluRay x264 - MovieCentral
[Link nur für registrierte und freigeschaltete Benutzer sichtbar] ([Link nur für registrierte und freigeschaltete Benutzer sichtbar])