PDA

Archiv verlassen und diese Seite im Standarddesign anzeigen : Jane Got a Gun 2015 German DTSHD DL 1080p BluRay AVC Remux - MovieCentral



MovieCentral
12.05.16, 08:25
Jane Got a Gun

Release: Jane.Got.a.Gun.2015.German.DTSHD.DL.1080p.BluRay.A VC.Remux-MovieCentral

[Link nur für registrierte und freigeschaltete Benutzer sichtbar]

Genre: Action, Drama, Western | Laufzeit: 98 Min. | Sprache/n: Deutsch, Englisch | IMDb-Link ('[Link nur für registrierte und freigeschaltete Benutzer sichtbar]')

NFO:


Release............. : Jane.Got.a.Gun.2015.German.DTSHD.DL.1080p.BluRay.A VC.Remux-MovieCentral
Titel............... : Jane Got a Gun
Releasedatum........ : 12.05.2016
Kinostart........... : 01.01.2016
Laufzeit............ : 1h 38min
Video............... : 1920x1080 @ 18.9 Mbps
Audio............... : Deutsch DTS-HD MA 5.1 @ 3587 Kbps | Englisch DTS-HD MA 5.1 @ 3463 Kbps
Subs................ : Deutsch Forced | Deutsch Komplett
Groesse............. : 18295 MB
IMDb................ : [Link nur für registrierte und freigeschaltete Benutzer sichtbar]


MediaInfo:

General
Unique ID : 209503217571840786739030172536832446026 (0x9D9CDA1DC4597E4487B4FFBCE8CACE4A)
Complete name : Jane.Got.a.Gun.2015.German.DTSHD.DL.1080p.BluRay.A VC.Remux-MovieCentral\Jane.Got.a.Gun.2015.German.DTSHD.DL.1 080p.BluRay.AVC.Remux-MovieCentral.mkv
Format : Matroska
Format version : Version 4 / Version 2
File size : 17.9 GiB
Duration : 1h 38mn
Overall bit rate mode : Variable
Overall bit rate : 25.9 Mbps
Movie name : Jane Remux MovieCentral
Encoded date : UTC 2016-05-11 20:13:55
Writing application : mkvmerge v9.1.0 ('Little Earthquakes') 64bit
Writing library : libebml v1.3.3 + libmatroska v1.4.4

Video
ID : 1
Format : AVC
Format/Info : Advanced Video Codec
Format profile : High@L4.1
Format settings, CABAC : Yes
Format settings, ReFrames : 4 frames
Codec ID : V_MPEG4/ISO/AVC
Duration : 1h 38mn
Bit rate mode : Variable
Bit rate : 18.9 Mbps
Maximum bit rate : 32.0 Mbps
Width : 1 920 pixels
Height : 1 080 pixels
Display aspect ratio : 16:9
Frame rate mode : Constant
Frame rate : 24.000 fps
Color space : YUV
Chroma subsampling : 4:2:0
Bit depth : 8 bits
Scan type : Progressive
Bits/(Pixel*Frame) : 0.379
Stream size : 13.0 GiB (73%)
Default : No
Forced : No

Audio #1
ID : 2
Format : DTS
Format/Info : Digital Theater Systems
Format profile : MA / Core
Mode : 16
Format settings, Endianness : Big
Codec ID : A_DTS
Duration : 1h 38mn
Bit rate mode : Variable / Constant
Bit rate : 3 587 Kbps / 1 509 Kbps
Channel(s) : 6 channels
Channel positions : Front: L C R, Side: L R, LFE
Sampling rate : 48.0 KHz
Frame rate : 93.750 fps (512 spf)
Bit depth : 24 bits
Compression mode : Lossless / Lossy
Stream size : 2.47 GiB (14%)
Title : DTS-HD MA 5.1
Language : German
Default : Yes
Forced : No

Audio #2
ID : 3
Format : DTS
Format/Info : Digital Theater Systems
Format profile : MA / Core
Mode : 16
Format settings, Endianness : Big
Codec ID : A_DTS
Duration : 1h 38mn
Bit rate mode : Variable / Constant
Bit rate : 3 463 Kbps / 1 509 Kbps
Channel(s) : 6 channels
Channel positions : Front: L C R, Side: L R, LFE
Sampling rate : 48.0 KHz
Frame rate : 93.750 fps (512 spf)
Bit depth : 24 bits
Compression mode : Lossless / Lossy
Stream size : 2.38 GiB (13%)
Title : DTS-HD MA 5.1
Language : English
Default : No
Forced : No

Text #1
ID : 4
Format : PGS
Muxing mode : zlib
Codec ID : S_HDMV/PGS
Codec ID/Info : Picture based subtitle format used on BDs/HD-DVDs
Duration : 1h 12mn
Bit rate : 54 bps
Count of elements : 8
Stream size : 29.0 KiB (0%)
Title : German Forced
Language : German
Default : Yes
Forced : Yes

Text #2
ID : 5
Format : PGS
Muxing mode : zlib
Codec ID : S_HDMV/PGS
Codec ID/Info : Picture based subtitle format used on BDs/HD-DVDs
Duration : 1h 30mn
Bit rate : 7 154 bps
Count of elements : 1548
Stream size : 4.61 MiB (0%)
Title : German Complete
Language : German
Default : No
Forced : No

Menu
00:00:00.000 : en:Chapter 1
00:09:54.583 : en:Chapter 2
00:20:29.167 : en:Chapter 3
00:31:17.083 : en:Chapter 4
00:41:47.125 : en:Chapter 5
00:53:50.042 : en:Chapter 6
01:01:31.000 : en:Chapter 7
01:10:25.917 : en:Chapter 8
01:22:23.333 : en:Chapter 9
01:31:44.208 : en:Chapter 10

Der Traum von einem freien und sorglosen neuen Leben in New Mexico währt für Jane (Natalie Portman) nur kurz. Sieben Jahre nachdem sie mit ihrem Mann Bill „Ham“ Hammond (Noah Emmerich) aus den Fängen der ruchlosen Verbrecherbande der „Bishop Boys“ floh und eine Familie fernab der Zivilisation gründete, holen die alten Dämonen sie wieder ein. Die gefürchtete Bande rund um ihren brutalen Anführer John Bishop (Ewan McGregor) hat das Paar aufgespürt und sinnt auf Vergeltung, denn Ham war einst selbst einer von ihnen. Doch Jane ist fest entschlossen, ihr neues Leben und ihre Tochter mit allen Mitteln zu verteidigen und mit den „Bishop Boys“ abzurechnen. Nachdem Ham von der Bande gefasst wurde und mit acht Kugeln im Rücken schwerverletzt um sein Leben ringt, bleibt Jane nur eine Wahl: Sie ruft ihren einstigen Verlobten Dan Frost (Joel Edgerton) zu Hilfe – wohlwissend, dass ihre gemeinsame Vergangenheit zwischen ihnen steht. Zusammen wappnen sie sich auf der Ranch für den großen Showdown…

Video Stream: BD | Audio Stream: DTS 5.1 | Video Codec: MPEG-4 H.264 / AVC
Hoster: Uploaded.net, Share-online.biz, Openload.co | Größe: 18.27 GB | Parts: 47

[Link nur für registrierte und freigeschaltete Benutzer sichtbar] ('[Link nur für registrierte und freigeschaltete Benutzer sichtbar]')

[Link nur für registrierte und freigeschaltete Benutzer sichtbar] ('[Link nur für registrierte und freigeschaltete Benutzer sichtbar]')

[Link nur für registrierte und freigeschaltete Benutzer sichtbar] ('[Link nur für registrierte und freigeschaltete Benutzer sichtbar]')