PDA

Archiv verlassen und diese Seite im Standarddesign anzeigen : Maleficent Die dunkle Fee 2014 German AC3D 720p WEBRiP x264 - CHNAP



falkefalke
06.09.14, 11:30
Maleficent.Die.dunkle.Fee.2014.German.AC3D.720p.WE BRiP.x264-CHNAP


[Link nur für registrierte und freigeschaltete Benutzer sichtbar]

Titel: Maleficent - Die dunkle Fee
Genre: Fantasy
Laufzeit: 97 Min.
Sprache/n: Deutsch
Video Stream: Web-Rip
Audio Stream: Line
Video Codec: MPEG-4 H.264 / AVC

Einst war die Hexe Malefiz (Angelina Jolie) eine schöne, warmherzige Frau, die in einem friedvollen Waldkönigreich lebte. Doch dann eroberte eine Armee ihr geliebtes Heimatland. Malefiz versuchte, ihr Zuhause um jeden Preis zu verteidigen, wurde jedoch von einem ihrer engsten Vertrauten verraten. Ihr Herz wurde langsam zu Stein, womit sie nicht nur ihr Heimatland verlor, sondern auch ihre Güte. Viele Jahre später wird der Eroberer durch einen neuen Herrscher abgelöst. Malefiz sieht die Chance gekommen, ihre Heimat zurückzugewinnen - und zieht gegen den neuen Machthaber zu Felde. Nachdem der Schachzug aber misslingt, belegt sie die Tochter des Herrschers, Aurora (Elle Fanning), mit einem Fluch. Erst als das Mädchen heranwächst, erkennt Malefiz die Bedeutung Auroras, für ihr Heimatland und für sich selbst.

nfo:


Imdb: [Link nur für registrierte und freigeschaltete Benutzer sichtbar]

Videosource: WEB-HD
Audiosource: German line NSANE THX!
Notes: -

Format : Matroska
Format version : Version 4 / Version 2
File size : 2.34 GiB
Duration : 1h 37mn
Overall bit rate : 3 425 Kbps
Movie name : maleficent.720p.web.ac3d.chnap
Encoded date : UTC 2014-09-05 06:27:14
Writing application : mkvmerge v6.8.0 ('Theme for Great Cities') 64bit built on Mar 2 2014 21:34:26
Writing library : libebml v1.3.0 + libmatroska v1.4.1

Video
ID : 1
Format : AVC
Format/Info : Advanced Video Codec
Format profile : [email protected]
Format settings, CABAC : Yes
Format settings, ReFrames : 12 frames
Codec ID : V_MPEG4/ISO/AVC
Duration : 1h 37mn
Bit rate : 3 200 Kbps
Width : 1 280 pixels
Height : 528 pixels
Display aspect ratio : 2.40:1
Frame rate mode : Constant
Frame rate : 23.976 fps
Color space : YUV
Chroma subsampling : 4:2:0
Bit depth : 8 bits
Scan type : Progressive
Bits/(Pixel*Frame) : 0.197
Stream size : 2.14 GiB (91%)
Title : maleficent.720p.web.ac3d.chnap
Writing library : x264 core 142 r2453 ea0ca51
Encoding settings : cabac=1 / ref=12 / deblock=1:-3:-3 / analyse=0x3:0x113 / me=umh / subme=7 / psy=1 / psy_rd=1.00:0.10 / mixed_ref=1 / me_range=16 / chroma_me=1 / trellis=2 / 8x8dct=1 / cqm=0 / deadzone=21,11 / fast_pskip=1 / chroma_qp_offset=-3 / threads=12 / lookahead_threads=3 / sliced_threads=0 / nr=0 / decimate=1 / interlaced=0 / bluray_compat=0 / constrained_intra=0 / bframes=5 / b_pyramid=2 / b_adapt=2 / b_bias=0 / direct=1 / weightb=1 / open_gop=0 / weightp=2 / keyint=240 / keyint_min=23 / scenecut=40 / intra_refresh=0 / rc_lookahead=60 / rc=2pass / mbtree=1 / bitrate=3200 / ratetol=1.0 / qcomp=0.60 / qpmin=0 / qpmax=69 / qpstep=4 / cplxblur=20.0 / qblur=0.5 / vbv_maxrate=40000 / vbv_bufsize=48000 / nal_hrd=none / filler=0 / ip_ratio=1.40 / aq=1:1.00
Language : German
Default : Yes
Forced : No
Color primaries : BT.709
Transfer characteristics : BT.709
Matrix coefficients : BT.709

Audio
ID : 2
Format : AC-3
Format/Info : Audio Coding 3
Mode extension : CM (complete main)
Format settings, Endianness : Big
Codec ID : A_AC3
Duration : 1h 37mn
Bit rate mode : Constant
Bit rate : 224 Kbps
Channel(s) : 2 channels
Channel positions : Front: L R
Sampling rate : 48.0 KHz
Bit depth : 16 bits
Compression mode : Lossy
Stream size : 157 MiB (7%)
Title : maleficent.720p.web.ac3d.chnap
Language : German
Default : Yes
Forced : No


uploaded.net / share-online.biz / oboom.com / uploadable.ch

[Link nur für registrierte und freigeschaltete Benutzer sichtbar]


Total Size: 2397 MB (5 Parts)

Uploaded.net

[Link nur für registrierte und freigeschaltete Benutzer sichtbar]
Download ([Link nur für registrierte und freigeschaltete Benutzer sichtbar])
Share-online.biz

[Link nur für registrierte und freigeschaltete Benutzer sichtbar]
Download ([Link nur für registrierte und freigeschaltete Benutzer sichtbar])
Oboom.com

[Link nur für registrierte und freigeschaltete Benutzer sichtbar]
Download ([Link nur für registrierte und freigeschaltete Benutzer sichtbar])
Uploadable.ch

[Link nur für registrierte und freigeschaltete Benutzer sichtbar]
Download ([Link nur für registrierte und freigeschaltete Benutzer sichtbar])