PDA

Archiv verlassen und diese Seite im Standarddesign anzeigen : Die Tribute von Panem Mockingjay Teil 2 2015 German DL 720p BluRay x264 - LeetHD



JohnnyM89
16.03.16, 00:52
Die Tribute von Panem Mockingjay Teil 2 2015 German DL 720p BluRay x264-LeetHD

[Link nur für registrierte und freigeschaltete Benutzer sichtbar]


Der Krieg in Panem spitzt sich immer weiter zu. Die junge Katniss Everdeen (Jennifer Lawrence), die mittlerweile ganz offen als Gesicht der Rebellion der Distrikte gegen Präsident Snow (Donald Sutherland) und sein totalitäres Regime gilt, bereitet sich auf die letzte große Konfrontation vor, die alles beenden und die Bevölkerung endgültig befreien soll. Mit jedem Erfolg der Aufständischen wird Snow nur noch besessener davon, Katniss zu stoppen. Unter Einsatz ihres Lebens will sie gemeinsam mit einer Einsatztruppe aus Distrikt 13, zu der auch ihre Freunde Gale (Liam Hemsworth), Finnick (Sam Claflin) und Peeta (Josh Hutcherson) gehören, das Kapitol erobern und Snow ein für alle Mal stürzen. Doch die Gefahren, die beim Kampf um die Zukunft auf sie warten, übertreffen alles, was die jungen Leute je in den Arenen der Hungerspiele durchleben mussten...


Genre: Abenteuer, Sci-Fi
Laufzeit: 136 Min.
Sprache: [Link nur für registrierte und freigeschaltete Benutzer sichtbar] [Link nur für registrierte und freigeschaltete Benutzer sichtbar]
Größe: 4589,88 MB
Parts: 5


Ordner-Passwort:
up.by.jm89
Share-Online.biz
[Link nur für registrierte und freigeschaltete Benutzer sichtbar]
Download ([Link nur für registrierte und freigeschaltete Benutzer sichtbar])
Uploaded.net
[Link nur für registrierte und freigeschaltete Benutzer sichtbar]
Download ([Link nur für registrierte und freigeschaltete Benutzer sichtbar])

Nfo

MEDIAINFO:

General
Unique ID : 227091476041394165857439809982690461536 (0xAAD83A35BA53A269B53ADB9527D38760)
Complete name : lhdmock2720p/lhd-dtvpt2-720p.mkv
Format : Matroska
Format version : Version 2
File size : 4.48 GiB
Duration : 2h 17mn
Overall bit rate : 4 658 Kbps
Encoded date : UTC 2016-03-12 18:59:39
Writing application : mkvmerge v4.5.0 ('Speed of Light') gebaut am Feb 1 2011 02:10:32
Writing library : libebml v1.2.0 + libmatroska v1.1.0

Video
ID : 1
Format : AVC
Format/Info : Advanced Video Codec
Format profile : [email protected]
Format settings, CABAC : Yes
Format settings, ReFrames : 4 frames
Codec ID : V_MPEG4/ISO/AVC
Duration : 2h 17mn
Bit rate : 3 285 Kbps
Width : 1 280 pixels
Height : 536 pixels
Display aspect ratio : 2.40:1
Frame rate : 23.976 fps
Color space : YUV
Chroma subsampling : 4:2:0
Bit depth : 8 bits
Scan type : Progressive
Bits/(Pixel*Frame) : 0.200
Stream size : 3.16 GiB (71%)
Writing library : x264 core 148 r2638 7599210
Encoding settings : cabac=1 / ref=5 / deblock=1:-1:-1 / analyse=0x3:0x133 / me=umh / subme=7 / psy=1 / psy_rd=1.00:0.15 / mixed_ref=1 / me_range=16 / chroma_me=1 / trellis=2 / 8x8dct=1 / cqm=0 / deadzone=21,11 / fast_pskip=1 / chroma_qp_offset=-3 / threads=12 / lookahead_threads=2 / sliced_threads=0 / nr=0 / decimate=1 / interlaced=0 / bluray_compat=0 / constrained_intra=0 / bframes=3 / b_pyramid=1 / b_adapt=2 / b_bias=0 / direct=1 / weightb=1 / open_gop=0 / weightp=1 / keyint=240 / keyint_min=23 / scenecut=40 / intra_refresh=0 / rc_lookahead=30 / rc=crf / mbtree=1 / crf=16.5 / qcomp=0.60 / qpmin=0 / qpmax=69 / qpstep=4 / ip_ratio=1.40 / aq=1:1.00
Language : English
Default : Yes
Forced : No

Audio #1
ID : 2
Format : AC-3
Format/Info : Audio Coding 3
Mode extension : CM (complete main)
Format settings, Endianness : Big
Codec ID : A_AC3
Duration : 2h 17mn
Bit rate mode : Constant
Bit rate : 640 Kbps
Channel(s) : 6 channels
Channel positions : Front: L C R, Side: L R, LFE
Sampling rate : 48.0 KHz
Bit depth : 16 bits
Compression mode : Lossy
Stream size : 631 MiB (14%)
Title : German
Language : German
Default : Yes
Forced : No

Audio #2
ID : 3
Format : AC-3
Format/Info : Audio Coding 3
Mode extension : CM (complete main)
Format settings, Endianness : Big
Codec ID : A_AC3
Duration : 2h 17mn
Bit rate mode : Constant
Bit rate : 640 Kbps
Channel(s) : 6 channels
Channel positions : Front: L C R, Side: L R, LFE
Sampling rate : 48.0 KHz
Bit depth : 16 bits
Compression mode : Lossy
Stream size : 631 MiB (14%)
Title : English
Language : English
Default : No
Forced : No

Text
ID : 4
Format : VobSub
Muxing mode : zlib
Codec ID : S_VOBSUB
Codec ID/Info : The same subtitle format used on DVDs
Title : German complete
Language : German
Default : No
Forced : No

Menu
00:00:00.000 : en:00:00:00.000
00:10:58.116 : en:00:10:58.116
00:19:43.682 : en:00:19:43.682
00:29:34.106 : en:00:29:34.106
00:43:44.956 : en:00:43:44.956
00:55:20.901 : en:00:55:20.901
01:04:54.849 : en:01:04:54.849
01:19:02.988 : en:01:19:02.988
01:37:28.259 : en:01:37:28.259
01:49:21.805 : en:01:49:21.805
01:59:34.417 : en:01:59:34.417
02:05:49.792 : en:02:05:49.792