PDA

Archiv verlassen und diese Seite im Standarddesign anzeigen : Black Mass 2015 German AC3 DL 1080p BluRay x264 - MovieCentral



MovieCentral
21.01.16, 23:24
Black Mass

Release: Black.Mass.2015.German.AC3.DL.1080p.BluRay.x264-MovieCentral

[Link nur für registrierte und freigeschaltete Benutzer sichtbar]

Genre: Biography, Crime, Drama | Laufzeit: 123 Min. | Sprache/n: Deutsch, Englisch | IMDb-Link ('[Link nur für registrierte und freigeschaltete Benutzer sichtbar]')

NFO:


Release............. : Black.Mass.2015.German.AC3.DL.1080p.BluRay.x264-MovieCentral
Titel............... : Black Mass
Releasedatum........ : 21.01.2016
Kinostart........... : 15.10.2015
Laufzeit............ : 2h 03min
Video............... : 1920x800 @ 7750 Kbps
Audio............... : Deutsch AC3 5.1 @ 640 Kbps | Englisch DTS 5.1 @ 1509 Kbps
Subs................ : Deutsch Forced | Deutsch+Englisch Komplett
Groesse............. : 8707 MB
IMDb................ : [Link nur für registrierte und freigeschaltete Benutzer sichtbar]


MediaInfo:

General
Unique ID : 203104499330023763246289668783604628306 (0x98CC80F322950E33BDD72ED1FD3DFB52)
Complete name : Black.Mass.2015.German.AC3.DL.1080p.BluRay.x264-MovieCentral\Black.Mass.2015.German.AC3.DL.1080p.B luRay.x264-MovieCentral.mkv
Format : Matroska
Format version : Version 4 / Version 2
File size : 8.50 GiB
Duration : 2h 2mn
Overall bit rate : 9 928 Kbps
Movie name : MovieCentral
Encoded date : UTC 2016-01-21 19:38:13
Writing application : mkvmerge v8.7.0 ('All of the above') 64bit
Writing library : libebml v1.3.3 + libmatroska v1.4.4

Video
ID : 1
Format : AVC
Format/Info : Advanced Video Codec
Format profile : [email protected]
Format settings, CABAC : Yes
Format settings, ReFrames : 5 frames
Codec ID : V_MPEG4/ISO/AVC
Duration : 2h 2mn
Bit rate : 7 750 Kbps
Width : 1 920 pixels
Height : 800 pixels
Display aspect ratio : 2.40:1
Frame rate mode : Constant
Frame rate : 23.976 (24000/1001) fps
Color space : YUV
Chroma subsampling : 4:2:0
Bit depth : 8 bits
Scan type : Progressive
Bits/(Pixel*Frame) : 0.210
Stream size : 6.63 GiB (78%)
Writing library : x264 core 146 r2538 121396c
Encoding settings : cabac=1 / ref=5 / deblock=1:-1:-1 / analyse=0x3:0x113 / me=umh / subme=8 / psy=1 / psy_rd=1.00:0.15 / mixed_ref=1 / me_range=16 / chroma_me=1 / trellis=1 / 8x8dct=1 / cqm=0 / deadzone=21,11 / fast_pskip=0 / chroma_qp_offset=-3 / threads=60 / lookahead_threads=6 / sliced_threads=0 / nr=0 / decimate=1 / interlaced=0 / bluray_compat=0 / constrained_intra=0 / bframes=3 / b_pyramid=2 / b_adapt=2 / b_bias=0 / direct=3 / weightb=1 / open_gop=0 / weightp=2 / keyint=250 / keyint_min=23 / scenecut=40 / intra_refresh=0 / rc_lookahead=50 / rc=2pass / mbtree=1 / bitrate=7750 / ratetol=1.0 / qcomp=0.60 / qpmin=0 / qpmax=69 / qpstep=4 / cplxblur=20.0 / qblur=0.5 / ip_ratio=1.40 / aq=1:1.00
Default : Yes
Forced : No

Audio #1
ID : 2
Format : AC-3
Format/Info : Audio Coding 3
Mode extension : CM (complete main)
Format settings, Endianness : Big
Codec ID : A_AC3
Duration : 2h 2mn
Bit rate mode : Constant
Bit rate : 640 Kbps
Channel(s) : 6 channels
Channel positions : Front: L C R, Side: L R, LFE
Sampling rate : 48.0 KHz
Frame rate : 31.250 fps (1536 spf)
Compression mode : Lossy
Stream size : 561 MiB (6%)
Title : AC3 5.1
Language : German
Default : Yes
Forced : No

Audio #2
ID : 3
Format : DTS
Format/Info : Digital Theater Systems
Mode : 16
Format settings, Endianness : Big
Codec ID : A_DTS
Duration : 2h 2mn
Bit rate mode : Constant
Bit rate : 1 509 Kbps
Channel(s) : 6 channels
Channel positions : Front: L C R, Side: L R, LFE
Sampling rate : 48.0 KHz
Frame rate : 93.750 fps (512 spf)
Bit depth : 24 bits
Compression mode : Lossy
Stream size : 1.29 GiB (15%)
Title : DTS 5.1
Language : English
Default : No
Forced : No

Text #1
ID : 4
Format : PGS
Muxing mode : zlib
Codec ID : S_HDMV/PGS
Codec ID/Info : Picture based subtitle format used on BDs/HD-DVDs
Duration : 9mn 56s
Bit rate : 3 139 bps
Count of elements : 56
Stream size : 229 KiB (0%)
Title : German Forced
Language : German
Default : Yes
Forced : Yes

Text #2
ID : 5
Format : PGS
Muxing mode : zlib
Codec ID : S_HDMV/PGS
Codec ID/Info : Picture based subtitle format used on BDs/HD-DVDs
Duration : 2h 1mn
Bit rate : 16.2 Kbps
Count of elements : 4242
Stream size : 14.1 MiB (0%)
Title : German Complete
Language : German
Default : No
Forced : No

Text #3
ID : 6
Format : PGS
Muxing mode : zlib
Codec ID : S_HDMV/PGS
Codec ID/Info : Picture based subtitle format used on BDs/HD-DVDs
Duration : 1h 53mn
Bit rate : 16.0 Kbps
Count of elements : 4172
Stream size : 13.0 MiB (0%)
Title : English Complete
Language : English
Default : No
Forced : No

Menu
00:00:00.000 : en:Chapter 1
00:09:44.292 : en:Chapter 2
00:18:27.523 : en:Chapter 3
00:31:22.130 : en:Chapter 4
00:41:49.507 : en:Chapter 5
00:51:58.782 : en:Chapter 6
00:59:19.890 : en:Chapter 7
01:09:17.779 : en:Chapter 8
01:19:53.956 : en:Chapter 9
01:28:47.906 : en:Chapter 10
01:39:44.270 : en:Chapter 11
01:52:18.732 : en:Chapter 12
01:55:14.407 : en:Chapter 13

Johnny Depp spielt in Black Mass den notorischen Gangster James „Whitey“ Bulger unter der Regie von Scott Cooper. South Boston in den 1970er-Jahren: FBI Agent John Connolly überredet den irischstämmigen Gangster Jimmy Bulger mit dem FBI zusammenzuarbeiten, um einen gemeinsamen Feind zu eliminieren: die italienische Mafia. Diese unselige Partnerschaft gerät schnell außer Kontrolle, sodass Whitey sich der Verurteilung entziehen und seine Macht sogar stärken kann, um sich als einer der skrupellosesten und einflussreichsten Gangster in der Geschichte von Boston zu behaupten.

Video Stream: BD | Audio Stream: Dolby Digital 5.1 | Video Codec: MPEG-4 H.264 / AVC
Hoster: Uploaded.net, Share-online.biz, Openload.co | Größe: 8.76 GB | Parts: 23

[Link nur für registrierte und freigeschaltete Benutzer sichtbar] ('[Link nur für registrierte und freigeschaltete Benutzer sichtbar]')

[Link nur für registrierte und freigeschaltete Benutzer sichtbar] ('[Link nur für registrierte und freigeschaltete Benutzer sichtbar]')

[Link nur für registrierte und freigeschaltete Benutzer sichtbar] ('[Link nur für registrierte und freigeschaltete Benutzer sichtbar]')

Checcker
27.01.16, 14:45
Black.Mass.2015.German.AC3.DL.1080p.BluRay.x264-MovieCentral

[Link nur für registrierte und freigeschaltete Benutzer sichtbar]

Genre: Thriller
Laufzeit: 123 Min.
Sprache/n: Englisch, Deutsch
Größe: 8708 MB
Parts: 44 Dateien

Beschreibung
South Boston in den 1970er-Jahren: FBI Agent John Connolly überredet den irischstämmigen Gangster Jimmy Bulger, mit dem FBI zusammenzuarbeiten, um einen gemeinsamen Feind zu eliminieren: die italienische Mafia. Diese unselige Partnerschaft gerät schnell außer Kontrolle, sodass Whitey sich der Verurteilung entziehen und seine Macht sogar stärken kann, um sich als einer der skrupellosesten und einflussreichsten Gangster in der Geschichte von Boston zu behaupten.


Release NFO

Release............. : Black.Mass.2015.German.AC3.DL.1080p.BluRay.x264-MovieCentral
Titel............... : Black Mass
Releasedatum........ : 21.01.2016
Kinostart........... : 15.10.2015
Laufzeit............ : 2h 03min
Video............... : 1920x800 @ 7750 Kbps
Audio............... : Deutsch AC3 5.1 @ 640 Kbps | Englisch DTS 5.1 @ 1509 Kbps
Subs................ : Deutsch Forced | Deutsch+Englisch Komplett
Groesse............. : 8707 MB
IMDb................ : [Link nur für registrierte und freigeschaltete Benutzer sichtbar]
[Link nur für registrierte und freigeschaltete Benutzer sichtbar]
[Link nur für registrierte und freigeschaltete Benutzer sichtbar]
Black.Mass.2015.German.AC3.DL.1080p.BluRay.x264-MovieCentral ([Link nur für registrierte und freigeschaltete Benutzer sichtbar])

[Link nur für registrierte und freigeschaltete Benutzer sichtbar]
[Link nur für registrierte und freigeschaltete Benutzer sichtbar]
Black.Mass.2015.German.AC3.DL.1080p.BluRay.x264-MovieCentral ([Link nur für registrierte und freigeschaltete Benutzer sichtbar])

[Link nur für registrierte und freigeschaltete Benutzer sichtbar]
[Link nur für registrierte und freigeschaltete Benutzer sichtbar]
Black.Mass.2015.German.AC3.DL.1080p.BluRay.x264-MovieCentral ([Link nur für registrierte und freigeschaltete Benutzer sichtbar])

JohnnyM89
31.01.16, 13:50
Black Mass 2015 German AC3 DL 1080p BluRay x264-MovieCentral

[Link nur für registrierte und freigeschaltete Benutzer sichtbar]


Johnny Depp spielt in Black Mass den notorischen Gangster James „Whitey“ Bulger unter der Regie von Scott Cooper. South Boston in den 1970er-Jahren: FBI Agent John Connolly überredet den irischstämmigen Gangster Jimmy Bulger mit dem FBI zusammenzuarbeiten, um einen gemeinsamen Feind zu eliminieren: die italienische Mafia. Diese unselige Partnerschaft gerät schnell außer Kontrolle, sodass Whitey sich der Verurteilung entziehen und seine Macht sogar stärken kann, um sich als einer der skrupellosesten und einflussreichsten Gangster in der Geschichte von Boston zu behaupten.


Genre: Krimi, Drama
Laufzeit: 123 Min.
Sprache: [Link nur für registrierte und freigeschaltete Benutzer sichtbar] [Link nur für registrierte und freigeschaltete Benutzer sichtbar]
Größe: 8707,87 MB
Parts: 10


Share-Online.biz
[Link nur für registrierte und freigeschaltete Benutzer sichtbar]
Download ([Link nur für registrierte und freigeschaltete Benutzer sichtbar])
Uploaded.net
[Link nur für registrierte und freigeschaltete Benutzer sichtbar]
Download ([Link nur für registrierte und freigeschaltete Benutzer sichtbar])

Nfo

Release............. : Black.Mass.2015.German.AC3.DL.1080p.BluRay.x264-MovieCentral
Titel............... : Black Mass
Releasedatum........ : 21.01.2016
Kinostart........... : 15.10.2015
Laufzeit............ : 2h 03min
Video............... : 1920x800 @ 7750 Kbps
Audio............... : Deutsch AC3 5.1 @ 640 Kbps | Englisch DTS 5.1 @ 1509 Kbps
Subs................ : Deutsch Forced | Deutsch+Englisch Komplett
Groesse............. : 8707 MB
IMDb................ : [Link nur für registrierte und freigeschaltete Benutzer sichtbar]