PDA

Archiv verlassen und diese Seite im Standarddesign anzeigen : Black Mass 2015 German AC3 DL 1080p BluRay AVC Remux - MovieCentral



MovieCentral
21.01.16, 23:24
Black Mass

Release: Black.Mass.2015.German.AC3.DL.1080p.BluRay.AVC.Rem ux-MovieCentral

[Link nur für registrierte und freigeschaltete Benutzer sichtbar]

Genre: Biography, Crime, Drama | Laufzeit: 123 Min. | Sprache/n: Deutsch, Englisch | IMDb-Link ('[Link nur für registrierte und freigeschaltete Benutzer sichtbar]')

NFO:


Release............. : Black.Mass.2015.German.AC3.DL.1080p.BluRay.AVC.Rem ux-MovieCentral
Titel............... : Black Mass
Releasedatum........ : 21.01.2016
Kinostart........... : 15.10.2015
Laufzeit............ : 2h 03min
Video............... : 1920x1080 @ 23.9 Mbps
Audio............... : Deutsch AC3 5.1 @ 640 Kbps | Englisch DTS-HD MA 5.1 @ 3443 Kbps
Subs................ : Deutsch Forced | Deutsch+Englisch Komplett
Groesse............. : 24573 MB
IMDb................ : [Link nur für registrierte und freigeschaltete Benutzer sichtbar]


MediaInfo:

General
Unique ID : 220769666158791146138785100128878589471 (0xA616B0EB0FD448DB9FB94A21B113F61F)
Complete name : Black.Mass.2015.German.AC3.DL.1080p.BluRay.AVC.Rem ux-MovieCentral\Black.Mass.2015.German.AC3.DL.1080p.B luRay.AVC.Remux-MovieCentral.mkv
Format : Matroska
Format version : Version 4 / Version 2
File size : 24.0 GiB
Duration : 2h 2mn
Overall bit rate mode : Variable
Overall bit rate : 28.0 Mbps
Movie name : MovieCentral
Encoded date : UTC 2016-01-20 22:51:21
Writing application : mkvmerge v8.7.0 ('All of the above') 64bit
Writing library : libebml v1.3.3 + libmatroska v1.4.4

Video
ID : 1
Format : AVC
Format/Info : Advanced Video Codec
Format profile : [email protected]
Format settings, CABAC : Yes
Format settings, ReFrames : 2 frames
Format settings, GOP : M=1, N=10
Codec ID : V_MPEG4/ISO/AVC
Duration : 2h 2mn
Bit rate mode : Variable
Bit rate : 23.9 Mbps
Width : 1 920 pixels
Height : 1 080 pixels
Display aspect ratio : 16:9
Frame rate mode : Constant
Frame rate : 23.976 (24000/1001) fps
Color space : YUV
Chroma subsampling : 4:2:0
Bit depth : 8 bits
Scan type : Progressive
Bits/(Pixel*Frame) : 0.481
Stream size : 20.5 GiB (85%)
Default : No
Forced : No

Audio #1
ID : 2
Format : AC-3
Format/Info : Audio Coding 3
Mode extension : CM (complete main)
Format settings, Endianness : Big
Codec ID : A_AC3
Duration : 2h 2mn
Bit rate mode : Constant
Bit rate : 640 Kbps
Channel(s) : 6 channels
Channel positions : Front: L C R, Side: L R, LFE
Sampling rate : 48.0 KHz
Frame rate : 31.250 fps (1536 spf)
Compression mode : Lossy
Stream size : 561 MiB (2%)
Title : AC3 5.1
Language : German
Default : Yes
Forced : No

Audio #2
ID : 3
Format : DTS
Format/Info : Digital Theater Systems
Format profile : MA / Core
Mode : 16
Format settings, Endianness : Big
Codec ID : A_DTS
Duration : 2h 2mn
Bit rate mode : Variable / Constant
Bit rate : 3 443 Kbps / 1 509 Kbps
Channel(s) : 6 channels
Channel positions : Front: L C R, Side: L R, LFE
Sampling rate : 48.0 KHz
Frame rate : 93.750 fps (512 spf)
Bit depth : 24 bits
Compression mode : Lossless / Lossy
Stream size : 2.95 GiB (12%)
Title : DTS-HD MA 5.1
Language : English
Default : No
Forced : No

Text #1
ID : 4
Format : PGS
Muxing mode : zlib
Codec ID : S_HDMV/PGS
Codec ID/Info : Picture based subtitle format used on BDs/HD-DVDs
Duration : 9mn 56s
Bit rate : 3 139 bps
Count of elements : 56
Stream size : 229 KiB (0%)
Title : German Forced
Language : German
Default : Yes
Forced : Yes

Text #2
ID : 5
Format : PGS
Muxing mode : zlib
Codec ID : S_HDMV/PGS
Codec ID/Info : Picture based subtitle format used on BDs/HD-DVDs
Duration : 2h 1mn
Bit rate : 16.2 Kbps
Count of elements : 4242
Stream size : 14.1 MiB (0%)
Title : German Complete
Language : German
Default : No
Forced : No

Text #3
ID : 6
Format : PGS
Muxing mode : zlib
Codec ID : S_HDMV/PGS
Codec ID/Info : Picture based subtitle format used on BDs/HD-DVDs
Duration : 1h 53mn
Bit rate : 16.0 Kbps
Count of elements : 4172
Stream size : 13.0 MiB (0%)
Title : English Complete
Language : English
Default : No
Forced : No

Menu
00:00:00.000 : en:Chapter 1
00:09:44.292 : en:Chapter 2
00:18:27.523 : en:Chapter 3
00:31:22.130 : en:Chapter 4
00:41:49.507 : en:Chapter 5
00:51:58.782 : en:Chapter 6
00:59:19.890 : en:Chapter 7
01:09:17.779 : en:Chapter 8
01:19:53.956 : en:Chapter 9
01:28:47.906 : en:Chapter 10
01:39:44.270 : en:Chapter 11
01:52:18.732 : en:Chapter 12
01:55:14.407 : en:Chapter 13

Johnny Depp spielt in Black Mass den notorischen Gangster James „Whitey“ Bulger unter der Regie von Scott Cooper. South Boston in den 1970er-Jahren: FBI Agent John Connolly überredet den irischstämmigen Gangster Jimmy Bulger mit dem FBI zusammenzuarbeiten, um einen gemeinsamen Feind zu eliminieren: die italienische Mafia. Diese unselige Partnerschaft gerät schnell außer Kontrolle, sodass Whitey sich der Verurteilung entziehen und seine Macht sogar stärken kann, um sich als einer der skrupellosesten und einflussreichsten Gangster in der Geschichte von Boston zu behaupten.

Video Stream: BD | Audio Stream: Dolby Digital 5.1 | Video Codec: MPEG-4 H.264 / AVC
Hoster: Uploaded.net, Share-online.biz, Openload.co | Größe: 24.71 GB | Parts: 63

[Link nur für registrierte und freigeschaltete Benutzer sichtbar] ('[Link nur für registrierte und freigeschaltete Benutzer sichtbar]')

[Link nur für registrierte und freigeschaltete Benutzer sichtbar] ('[Link nur für registrierte und freigeschaltete Benutzer sichtbar]')

[Link nur für registrierte und freigeschaltete Benutzer sichtbar] ('[Link nur für registrierte und freigeschaltete Benutzer sichtbar]')