PDA

Archiv verlassen und diese Seite im Standarddesign anzeigen : The Last Ship S01 GERMAN DL DUBBED 1080p WebHD x264 - TVP



Track2009
16.07.14, 17:46
The.Last.Ship.S01.GERMAN.DL.DUBBED.1080p.WebHD.x26 4-TVP


[Link nur für registrierte und freigeschaltete Benutzer sichtbar]


Beschreibung/Infos:

Action, Drama, Sci-Fi - 10 Folgen

The Last Ship spielt in einer nahen Zukunft, in der ein Großteil der Menschheit einer Viruserkrankung zum Opfer gefallen ist. Unter den Überlebenden herrscht Chaos, Regierungen existieren nicht mehr, Krieg und Zerstörung haben die Erde verwüstet. Im Mittelpunkt der zehnteiligen Serie steht die Crew des Zerstörers U.S.S. Nathan James unter dem Kommando von Captain Tom Chandler und seinem ersten Offizier Mike Slattery. Da die Nathan James vier Monate unter Funkstille auf Manöverfahrt in der Antarktis kreuzte, blieben der Ausbruch und die Ausbreitung der Seuche und ihre Folgen von der Mannschaft unbemerkt. Erst als das Schiff von Unbekannten angegriffen wird, erfährt Captain Chandler die Wahrheit.


SOURCE.........: HDTV
ViDEO..........: 720 x 404
AUDiO1..........: 192 Kbps AC3 2CH
AUDiO2..........: 384 Kbps AC3 6CH
SiZE............: ~1583 MB
HOSTER........: SO, UL, OB


Original NFO:



The.Last.Ship.S01E01.Pilot.GERMAN.DL.DUBBED.1080p. WebHD.x264-TVP

Release.Date...: 15.07.2014 Bitrate......: 4188 Kbps
Air.Date.......: 15.07.2014 Audio.1......: 192 Kbps AC3 2CH
Retail.Date....: --.--.---- Audio.2......: 384 Kbps AC3 6CH
Running Time...: 00:45:32 min Format.......: .mkv / x264
Source.........: iTunesHD Video.Res....: 1920 x 1080
Language.......: German, English Size.........: 1583 MB
Subtitles......: None Genre........: Serie
Link...........: [Link nur für registrierte und freigeschaltete Benutzer sichtbar]



Staffelpack
Download ([Link nur für registrierte und freigeschaltete Benutzer sichtbar])

The Last Ship E01 - Pilot
Download ([Link nur für registrierte und freigeschaltete Benutzer sichtbar])

The Last Ship E02 - Welcome to Gitmo
Download ([Link nur für registrierte und freigeschaltete Benutzer sichtbar])

The Last Ship E03 - Hoheitsgewässer
Download ([Link nur für registrierte und freigeschaltete Benutzer sichtbar])

The Last Ship E04 - Durststrecke
Download ('[Link nur für registrierte und freigeschaltete Benutzer sichtbar]')

Fostex6301
06.08.14, 22:18
The Last Ship S01 GERMAN DL DUBBED 1080p WebHD x264 - TVP


[Link nur für registrierte und freigeschaltete Benutzer sichtbar]

INFO:
Jahr: 2014
Genre: Action | Drama | Sci-Fi
Sprache: Deutsch AC3 | Englisch AC3
Laufzeit: 44min je Folge
Bitrate: 4200 Kbps
Format: MKV
Größe: 1,6 GB je Folge

Im Zentrum der Serie steht die U.S.S. Nathan James. Nachdem der Zerstörer der US-Marine längere Zeit auf einer Spezialmission unterwegs war, kehrt er in eine vollkommen veränderte Welt zurück: Eine Pandemie hat weite Teile der Menschheit dahingerafft, in der Welt herrschen Anarchie und Chaos. Wie es sich gehört, spielt die Nathan James in den Vorgängen eine spezielle Rolle.

NFO:



General
Complete name : The.Last.Ship.S01E01.Pilot.GERMAN.DL.DUBBED.1080p. WebHD.x264-TVP\tvp-lastship-s01e01-1080p.mkv
Format : Matroska
Format version : Version 2
File size : 1.55 GiB
Duration : 45mn 32s
Overall bit rate : 4 861 Kbps
Movie name : The.Last.Ship.S01E01.Pilot.GERMAN.DL.DUBBED.1080p. WebHD.x264-TVP
Encoded date : UTC 2014-07-15 19:43:08
Writing application : mkvmerge v5.6.0 ('Kenya Kane') built on May 28 2012 06:47:39
Writing library : libebml v1.2.2 + libmatroska v1.3.0

Video
ID : 1
Format : AVC
Format/Info : Advanced Video Codec
Format profile : [email protected]
Format settings, CABAC : Yes
Format settings, ReFrames : 4 frames
Codec ID : V_MPEG4/ISO/AVC
Duration : 45mn 32s
Bit rate : 4 188 Kbps
Width : 1 920 pixels
Height : 1 080 pixels
Display aspect ratio : 16:9
Frame rate mode : Constant
Frame rate : 25.000 fps
Color space : YUV
Chroma subsampling : 4:2:0
Bit depth : 8 bits
Scan type : Progressive
Bits/(Pixel*Frame) : 0.081
Stream size : 1.33 GiB (86%)
Title : tvp-lastship-s01e01-1080p
Language : German
Default : Yes
Forced : Yes
Color primaries : BT.709
Transfer characteristics : BT.709
Matrix coefficients : BT.709

Audio #1
ID : 2
Format : AC-3
Format/Info : Audio Coding 3
Mode extension : CM (complete main)
Format settings, Endianness : Big
Codec ID : A_AC3
Duration : 45mn 32s
Bit rate mode : Constant
Bit rate : 192 Kbps
Channel(s) : 2 channels
Channel positions : Front: L R
Sampling rate : 48.0 KHz
Bit depth : 16 bits
Compression mode : Lossy
Stream size : 62.5 MiB (4%)
Language : German
Default : Yes
Forced : Yes

Audio #2
ID : 3
Format : AC-3
Format/Info : Audio Coding 3
Mode extension : CM (complete main)
Format settings, Endianness : Big
Codec ID : A_AC3
Duration : 45mn 32s
Bit rate mode : Constant
Bit rate : 384 Kbps
Channel(s) : 6 channels
Channel positions : Front: L C R, Side: L R, LFE
Sampling rate : 48.0 KHz
Bit depth : 16 bits
Compression mode : Lossy
Stream size : 125 MiB (8%)
Language : English
Default : No
Forced : No



2 Mirrors online:
[Link nur für registrierte und freigeschaltete Benutzer sichtbar]


Jede Folge einzeln ladbar
Paketinhalt:
The.Last.Ship.S01E01.Pilot.GERMAN.DL.DUBBED.1080p. WebHD.x264-TVP
The.Last.Ship.S01E02.Welcome.To.Gitmo.GERMAN.DL.DU BBED.1080p.WebHD.x264-TVP
The.Last.Ship.S01E03.Dead.Reckoning.GERMAN.DL.DUBB ED.1080p.WebHD.x264-TVP
The.Last.Ship.S01E04.Durststrecke.GERMAN.DL.DUBBED .1080p.WebHD.x264-TVP


Mirror 1: Uploaded ([Link nur für registrierte und freigeschaltete Benutzer sichtbar])

Mirror 2: Share-Online ([Link nur für registrierte und freigeschaltete Benutzer sichtbar])

Passwort:

alle meine Files sind ohne Passwort


Schnellen Download und ein bedanken hilft uns allen
Down Meldungen nur über PN

NatureOne
28.02.15, 22:18
The Last Ship S01 GERMAN DL DUBBED 1080p WebHD x264-TVP


[Link nur für registrierte und freigeschaltete Benutzer sichtbar]



Jahr: 2014
Genre: Action | Drama | Sci-Fi
Sprache: Deutsch AC3 | Englisch AC3
Laufzeit: 44min je Folge
Bitrate: 4200 Kbps
Format: MKV
Größe: 1,6 GB je Folge


Beschreibung:

Im Zentrum der Serie steht die U.S.S. Nathan James. Nachdem der Zerstörer der US-Marine längere Zeit auf einer Spezialmission unterwegs war, kehrt er in eine vollkommen veränderte Welt zurück: Eine Pandemie hat weite Teile der Menschheit dahingerafft, in der Welt herrschen Anarchie und Chaos. Wie es sich gehört, spielt die Nathan James in den Vorgängen eine spezielle Rolle.

enthaltene Folgen:
The.Last.Ship.S01E01.Pilot.GERMAN.DL.DUBBED.1080p. WebHD.x264-TVP
The.Last.Ship.S01E02.Welcome.To.Gitmo.GERMAN.DL.DU BBED.1080p.WebHD.x264-TVP
The.Last.Ship.S01E03.Dead.Reckoning.GERMAN.DL.DUBB ED.1080p.WebHD.x264-TVP
The.Last.Ship.S01E04.Durststrecke.GERMAN.DL.DUBBED .1080p.WebHD.x264-TVP
The.Last.Ship.S01E05.El.Toro.GERMAN.DL.DUBBED.1080 p.WebHD.x264-TVP
The.Last.Ship.S01E06.Lockdown.GERMAN.DL.DUBBED.108 0p.WebHD.x264-TVP
The.Last.Ship.S01E07.Sos.GERMAN.DL.DUBBED.1080p.We bHD.x264-TVP
The.Last.Ship.S01E08.Two.Sailors.Walk.Into.a.Bar.G ERMAN.DL.DUBBED.1080p.WebHD.x264-TVP
The.Last.Ship.S01E09.Trials.GERMAN.DL.DUBBED.1080p .WebHD.x264-TVP
The.Last.Ship.S01E10.No.Place.Like.Home.GERMAN.DL. DUBBED.1080p.WebHD.x264-TVP






The.Last.Ship.S01E01.Pilot.GERMAN.DL.DUBBED.1080p. WebHD.x264-TVP

Release.Date...: 15.07.2014 Bitrate......: 4188 Kbps
Air.Date.......: 15.07.2014 Audio.1......: 192 Kbps AC3 2CH
Retail.Date....: --.--.---- Audio.2......: 384 Kbps AC3 6CH
Running Time...: 00:45:32 min Format.......: .mkv / x264
Source.........: iTunesHD Video.Res....: 1920 x 1080
Language.......: German, English Size.........: 1583 MB
Subtitles......: None Genre........: Serie
Link...........: [Link nur für registrierte und freigeschaltete Benutzer sichtbar]




Alle Hoster sind kompatibel !




Uploaded :

302 Found ([Link nur für registrierte und freigeschaltete Benutzer sichtbar])




Share-Online :

302 Found ([Link nur für registrierte und freigeschaltete Benutzer sichtbar])