PDA

Archiv verlassen und diese Seite im Standarddesign anzeigen : The Transporter Refueled 2015 German DTS DL 720p BluRay x264 - MovieCentral



MovieCentral
26.12.15, 14:30
The Transporter Refueled

Release: The.Transporter.Refueled.2015.German.DTS.DL.720p.B luRay.x264-MovieCentral

[Link nur für registrierte und freigeschaltete Benutzer sichtbar]

Genre: Action, Crime, Thriller | Laufzeit: 96 Min. | Sprache/n: Deutsch, Englisch | IMDb-Link ('[Link nur für registrierte und freigeschaltete Benutzer sichtbar]')

NFO:


The.Transporter.Refueled.2015.German.DTS.DL.720p.B luRay.x264-MovieCentral

Titel............... : The Transporter Refueled
Releasedatum........ : 26.12.2015
Kinostart........... : 03.09.2015
Laufzeit............ : 1h 36min
Video............... : 1280x536 @ 3826 Kbps
Audio............... : Deutsch DTS 5.1 @ 1509 Kbps | Englisch DTS 5.1 @ 1509 Kbps
Subs................ : Deutsch Forced | Deutsch Komplett
Groesse............. : 4722 MB
IMDb................ : [Link nur für registrierte und freigeschaltete Benutzer sichtbar]


MediaInfo:

General
Unique ID : 184971709892584001402549475082462137153 (0x8B2841681928902C98209310C0BD8B41)
Complete name : The.Transporter.Refueled.2015.German.DTS.DL.720p.B luRay.x264-MovieCentral\The.Transporter.Refueled.2015.German. DTS.DL.720p.BluRay.x264-MovieCentral.mkv
Format : Matroska
Format version : Version 4 / Version 2
File size : 4.61 GiB
Duration : 1h 36mn
Overall bit rate : 6 857 Kbps
Movie name : MovieCentral
Encoded date : UTC 2015-12-25 19:06:44
Writing application : mkvmerge v8.4.0 ('A better way to fly') 64bit
Writing library : libebml v1.3.1 + libmatroska v1.4.2

Video
ID : 1
Format : AVC
Format/Info : Advanced Video Codec
Format profile : [email protected]
Format settings, CABAC : Yes
Format settings, ReFrames : 5 frames
Codec ID : V_MPEG4/ISO/AVC
Duration : 1h 36mn
Bit rate : 3 826 Kbps
Width : 1 280 pixels
Height : 536 pixels
Display aspect ratio : 2.40:1
Frame rate mode : Constant
Frame rate : 24.000 fps
Color space : YUV
Chroma subsampling : 4:2:0
Bit depth : 8 bits
Scan type : Progressive
Bits/(Pixel*Frame) : 0.232
Stream size : 2.57 GiB (56%)
Writing library : x264 core 148 r2597 e86f3a1
Encoding settings : cabac=1 / ref=5 / deblock=1:-1:-1 / analyse=0x3:0x113 / me=umh / subme=8 / psy=1 / psy_rd=1.00:0.15 / mixed_ref=1 / me_range=16 / chroma_me=1 / trellis=1 / 8x8dct=1 / cqm=0 / deadzone=21,11 / fast_pskip=0 / chroma_qp_offset=-3 / threads=17 / lookahead_threads=2 / sliced_threads=0 / nr=0 / decimate=1 / interlaced=0 / bluray_compat=0 / constrained_intra=0 / bframes=3 / b_pyramid=2 / b_adapt=2 / b_bias=0 / direct=3 / weightb=1 / open_gop=0 / weightp=2 / keyint=250 / keyint_min=24 / scenecut=40 / intra_refresh=0 / rc_lookahead=50 / rc=crf / mbtree=1 / crf=18.0 / qcomp=0.60 / qpmin=0 / qpmax=69 / qpstep=4 / ip_ratio=1.40 / aq=1:1.00
Default : Yes
Forced : No

Audio #1
ID : 2
Format : DTS
Format/Info : Digital Theater Systems
Mode : 16
Format settings, Endianness : Big
Codec ID : A_DTS
Duration : 1h 36mn
Bit rate mode : Constant
Bit rate : 1 509 Kbps
Channel(s) : 6 channels
Channel positions : Front: L C R, Side: L R, LFE
Sampling rate : 48.0 KHz
Frame rate : 93.750 fps (512 spf)
Bit depth : 24 bits
Compression mode : Lossy
Stream size : 1.01 GiB (22%)
Title : DTS 5.1
Language : German
Default : Yes
Forced : No

Audio #2
ID : 3
Format : DTS
Format/Info : Digital Theater Systems
Mode : 16
Format settings, Endianness : Big
Codec ID : A_DTS
Duration : 1h 36mn
Bit rate mode : Constant
Bit rate : 1 509 Kbps
Channel(s) : 6 channels
Channel positions : Front: L C R, Side: L R, LFE
Sampling rate : 48.0 KHz
Frame rate : 93.750 fps (512 spf)
Bit depth : 24 bits
Compression mode : Lossy
Stream size : 1.01 GiB (22%)
Title : DTS 5.1
Language : English
Default : No
Forced : No

Text #1
ID : 4
Format : PGS
Muxing mode : zlib
Codec ID : S_HDMV/PGS
Codec ID/Info : Picture based subtitle format used on BDs/HD-DVDs
Duration : 1h 29mn
Bit rate : 298 bps
Count of elements : 68
Stream size : 195 KiB (0%)
Title : German Forced
Language : German
Default : Yes
Forced : Yes

Text #2
ID : 5
Format : PGS
Muxing mode : zlib
Codec ID : S_HDMV/PGS
Codec ID/Info : Picture based subtitle format used on BDs/HD-DVDs
Duration : 1h 35mn
Bit rate : 9 483 bps
Count of elements : 1638
Stream size : 6.47 MiB (0%)
Title : German Complete
Language : German
Default : No
Forced : No

Menu
00:00:00.000 : en:Chapter 1
00:11:42.125 : en:Chapter 2
00:20:57.083 : en:Chapter 3
00:29:18.208 : en:Chapter 4
00:40:09.625 : en:Chapter 5
00:50:10.250 : en:Chapter 6
00:58:23.417 : en:Chapter 7
01:09:06.208 : en:Chapter 8
01:18:20.417 : en:Chapter 9
01:30:21.917 : en:Chapter 10

Knallhart, zuverlässig und immer pünktlich: in der kriminellen Unterwelt von Frankreich ist Frank Martin (Ed Skrein) nur als der "Transporter" bekannt - der beste Fahrer, den man für Geld kaufen kann. Wenn der Preis stimmt, bringt Frank alles an seinen Bestimmungsort, lässiger Kommentar inklusive. Dabei arbeitet er streng nach drei ganz einfachen Regeln: keine Namen, keine Fragen und keine Nachverhandlungen. Doch dann begegnet er der so geheimnisvollen wie verführerischen Anna (Loan Chabanol). Die Anführerin einer Söldnertruppe macht auf ihrer persönlichen Mission, eine Bande russischer Menschenhändler auszuschalten, vor nichts halt. Und weil sie weiß, dass Frank der beste Mann für diesen Job ist, versucht sie, ihn mit einer sehr überzeugenden Methode zu einer Zusammenarbeit zu bewegen: Sie nimmt Franks Vater (Ray Stevenson) als Geisel. Wohl oder übel müssen die beiden nun mit Anna kooperieren und den Kampf gegen die brutalen Gangster aufnehmen...

Video Stream: BD | Audio Stream: DTS 5.1 | Video Codec: MPEG-4 H.264 / AVC
Hoster: Uploaded.net, Share-online.biz, Openload.co | Größe: 4.75 GB | Parts: 13

[Link nur für registrierte und freigeschaltete Benutzer sichtbar] ('[Link nur für registrierte und freigeschaltete Benutzer sichtbar]')

[Link nur für registrierte und freigeschaltete Benutzer sichtbar] ('[Link nur für registrierte und freigeschaltete Benutzer sichtbar]')

[Link nur für registrierte und freigeschaltete Benutzer sichtbar] ('[Link nur für registrierte und freigeschaltete Benutzer sichtbar]')

JohnnyM89
11.01.16, 14:26
The Transporter Refueled 2015 German DTS DL 720p BluRay x264-MovieCentral

[Link nur für registrierte und freigeschaltete Benutzer sichtbar]


Knallhart, zuverlässig und immer pünktlich: in der kriminellen Unterwelt von Frankreich ist Frank Martin nur als der "Transporter" bekannt - der beste Fahrer, den man für Geld kaufen kann. Wenn der Preis stimmt, bringt Frank alles an seinen Bestimmungsort, lässiger Kommentar inklusive. Dabei arbeitet er streng nach drei ganz einfachen Regeln: keine Namen, keine Fragen und keine Nachverhandlungen. Doch dann begegnet er der so geheimnisvollen wie verführerischen Anna. Die Anführerin einer Söldnertruppe macht auf ihrer persönlichen Mission, eine Bande russischer Menschenhändler auszuschalten, vor nichts halt. Und weil sie weiß, dass Frank der beste Mann für diesen Job ist, versucht sie, ihn mit einer sehr überzeugenden Methode zu einer Zusammenarbeit zu bewegen: Sie nimmt Franks Vater als Geisel. Wohl oder übel müssen die beiden nun mit Anna kooperieren und den Kampf gegen die brutalen Gangster aufnehmen...


Genre: Action, Krimi, Thriller
Laufzeit: 96 Min.
Sprache: [Link nur für registrierte und freigeschaltete Benutzer sichtbar] [Link nur für registrierte und freigeschaltete Benutzer sichtbar]
Größe: 4722,26 MB
Parts: 5


Ordner-Passwort:
up.by.jm89
Share-Online.biz
[Link nur für registrierte und freigeschaltete Benutzer sichtbar]
Download ([Link nur für registrierte und freigeschaltete Benutzer sichtbar])
Uploaded.net
[Link nur für registrierte und freigeschaltete Benutzer sichtbar]
Download ([Link nur für registrierte und freigeschaltete Benutzer sichtbar])

Nfo

The.Transporter.Refueled.2015.German.DTS.DL.720p.B luRay.x264-MovieCentral

Titel............... : The Transporter Refueled
Releasedatum........ : 26.12.2015
Kinostart........... : 03.09.2015
Laufzeit............ : 1h 36min
Video............... : 1280x536 @ 3826 Kbps
Audio............... : Deutsch DTS 5.1 @ 1509 Kbps | Englisch DTS 5.1 @ 1509 Kbps
Subs................ : Deutsch Forced | Deutsch Komplett
Groesse............. : 4722 MB
IMDb................ : [Link nur für registrierte und freigeschaltete Benutzer sichtbar]