PDA

Archiv verlassen und diese Seite im Standarddesign anzeigen : Aloha Die Chance auf Glueck 2015 German DTS DL 1080p BluRay x264 - MovieCentral



MovieCentral
25.12.15, 15:30
Aloha: Die Chance auf Glück

Release: Aloha.Die.Chance.auf.Glueck.2015.German.DTS.DL.108 0p.BluRay.x264-MovieCentral

[Link nur für registrierte und freigeschaltete Benutzer sichtbar]

Genre: Comedy, Drama, Romance | Laufzeit: 105 Min. | Sprache/n: Deutsch, Englisch | IMDb-Link ('[Link nur für registrierte und freigeschaltete Benutzer sichtbar]')

NFO:


Aloha.Die.Chance.auf.Glueck.2015.German.DTS.DL.108 0p.BluRay.x264-MovieCentral

Titel............... : Aloha: Die Chance auf Glueck
Releasedatum........ : 25.12.2015
Kinostart........... : 06.08.2015
Laufzeit............ : 1h 45min
Video............... : 1920x1040 @ 11.0 Mbps
Audio............... : Deutsch DTS 5.1 @ 768 Kbps | Englisch DTS 5.1 @ 1509 Kbps
Subs................ : Deutsch Forced | Deutsch+Englisch Komplett
Groesse............. : 9967 MB
IMDb................ : [Link nur für registrierte und freigeschaltete Benutzer sichtbar]


MediaInfo:

General
Unique ID : 241811913039052548861469472661454800552 (0xB5EB47C9CFB6F281B3882D68C79946A8)
Complete name : Aloha.Die.Chance.auf.Glueck.2015.German.DTS.DL.108 0p.BluRay.x264-MovieCentral\Aloha.Die.Chance.auf.Glueck.2015.Germ an.DTS.DL.1080p.BluRay.x264-MovieCentral.mkv
Format : Matroska
Format version : Version 4 / Version 2
File size : 9.73 GiB
Duration : 1h 44mn
Overall bit rate : 13.3 Mbps
Movie name : MovieCentral
Encoded date : UTC 2015-12-24 11:56:58
Writing application : mkvmerge v8.4.0 ('A better way to fly') 64bit
Writing library : libebml v1.3.1 + libmatroska v1.4.2

Video
ID : 1
Format : AVC
Format/Info : Advanced Video Codec
Format profile : [email protected]
Format settings, CABAC : Yes
Format settings, ReFrames : 4 frames
Codec ID : V_MPEG4/ISO/AVC
Duration : 1h 44mn
Bit rate : 11.0 Mbps
Width : 1 920 pixels
Height : 1 040 pixels
Display aspect ratio : 1.85:1
Frame rate mode : Constant
Frame rate : 23.976 (24000/1001) fps
Color space : YUV
Chroma subsampling : 4:2:0
Bit depth : 8 bits
Scan type : Progressive
Bits/(Pixel*Frame) : 0.230
Stream size : 8.05 GiB (83%)
Writing library : x264 core 148 r2597 e86f3a1
Encoding settings : cabac=1 / ref=4 / deblock=1:-1:-1 / analyse=0x3:0x113 / me=umh / subme=8 / psy=1 / psy_rd=1.00:0.15 / mixed_ref=1 / me_range=16 / chroma_me=1 / trellis=1 / 8x8dct=1 / cqm=0 / deadzone=21,11 / fast_pskip=0 / chroma_qp_offset=-3 / threads=32 / lookahead_threads=5 / sliced_threads=0 / nr=0 / decimate=1 / interlaced=0 / bluray_compat=0 / constrained_intra=0 / bframes=3 / b_pyramid=2 / b_adapt=2 / b_bias=0 / direct=3 / weightb=1 / open_gop=0 / weightp=2 / keyint=250 / keyint_min=23 / scenecut=40 / intra_refresh=0 / rc_lookahead=50 / rc=2pass / mbtree=1 / bitrate=11000 / ratetol=1.0 / qcomp=0.60 / qpmin=0 / qpmax=69 / qpstep=4 / cplxblur=20.0 / qblur=0.5 / ip_ratio=1.40 / aq=1:1.00
Default : Yes
Forced : No

Audio #1
ID : 2
Format : DTS
Format/Info : Digital Theater Systems
Mode : 16
Format settings, Endianness : Big
Codec ID : A_DTS
Duration : 1h 44mn
Bit rate mode : Constant
Bit rate : 768 Kbps
Channel(s) : 6 channels
Channel positions : Front: L C R, Side: L R, LFE
Sampling rate : 48.0 KHz
Frame rate : 93.750 fps (512 spf)
Bit depth : 24 bits
Compression mode : Lossy
Stream size : 576 MiB (6%)
Title : DTS 5.1
Language : German
Default : Yes
Forced : No

Audio #2
ID : 3
Format : DTS
Format/Info : Digital Theater Systems
Mode : 16
Format settings, Endianness : Big
Codec ID : A_DTS
Duration : 1h 44mn
Bit rate mode : Constant
Bit rate : 1 509 Kbps
Channel(s) : 6 channels
Channel positions : Front: L C R, Side: L R, LFE
Sampling rate : 48.0 KHz
Frame rate : 93.750 fps (512 spf)
Bit depth : 24 bits
Compression mode : Lossy
Stream size : 1.10 GiB (11%)
Title : DTS 5.1
Language : English
Default : No
Forced : No

Text #1
ID : 4
Format : PGS
Muxing mode : zlib
Codec ID : S_HDMV/PGS
Codec ID/Info : Picture based subtitle format used on BDs/HD-DVDs
Duration : 13mn 13s
Bit rate : 1 169 bps
Count of elements : 18
Stream size : 113 KiB (0%)
Title : German Forced
Language : German
Default : Yes
Forced : Yes

Text #2
ID : 5
Format : PGS
Muxing mode : zlib
Codec ID : S_HDMV/PGS
Codec ID/Info : Picture based subtitle format used on BDs/HD-DVDs
Duration : 1h 42mn
Bit rate : 11.7 Kbps
Count of elements : 3090
Stream size : 8.60 MiB (0%)
Title : German Complete
Language : German
Default : No
Forced : No

Text #3
ID : 6
Format : PGS
Muxing mode : zlib
Codec ID : S_HDMV/PGS
Codec ID/Info : Picture based subtitle format used on BDs/HD-DVDs
Duration : 1h 43mn
Bit rate : 15.3 Kbps
Count of elements : 3804
Stream size : 11.3 MiB (0%)
Title : English Complete
Language : English
Default : No
Forced : No

Menu
00:00:00.000 : en:Chapter 1
00:05:00.383 : en:Chapter 2
00:11:17.385 : en:Chapter 3
00:20:19.927 : en:Chapter 4
00:27:25.185 : en:Chapter 5
00:33:43.188 : en:Chapter 6
00:40:19.375 : en:Chapter 7
00:46:57.690 : en:Chapter 8
00:51:49.732 : en:Chapter 9
00:56:39.771 : en:Chapter 10
01:05:26.131 : en:Chapter 11
01:11:26.032 : en:Chapter 12
01:19:01.570 : en:Chapter 13
01:25:53.857 : en:Chapter 14
01:32:00.724 : en:Chapter 15
01:36:47.093 : en:Chapter 16

Regisseur Cameron Crowe ("Jerry Maguire - Spiel des Lebens") erzählt in seinem neuen Film die Geschichte von Brian Gilcrest (Bradley Cooper), eines vom Glück verlassenen, arbeitslosen Sicherheits- und Militärberater. Gilcrest bekommt die Chance, nach Hawaii zurückzukehren, wo er die größten Triumpfe seiner Karriere gefeiert hat. Während er hofft, seine Reputation wiederherzustellen, sucht er auch die Nähe zu einer längst vergangenen Liebe (Rachel McAdams) und muss lernen, mit seinen unerwarteten Gefühlen für seine Projektpartnerin , einer jungen Air Force-Pilotin (Emma Stone), umzugehen.

Video Stream: BD | Audio Stream: DTS 5.1 | Video Codec: MPEG-4 H.264 / AVC
Hoster: Uploaded.net, Share-online.biz, Openload.co | Größe: 10.03 GB | Parts: 26

[Link nur für registrierte und freigeschaltete Benutzer sichtbar] ('[Link nur für registrierte und freigeschaltete Benutzer sichtbar]')

[Link nur für registrierte und freigeschaltete Benutzer sichtbar] ('[Link nur für registrierte und freigeschaltete Benutzer sichtbar]')

[Link nur für registrierte und freigeschaltete Benutzer sichtbar] ('[Link nur für registrierte und freigeschaltete Benutzer sichtbar]')