PDA

Archiv verlassen und diese Seite im Standarddesign anzeigen : Codename U N C L E 2015 German AC3LD DL 720p BluRa y x264 - HQX



dgw
10.11.15, 15:32
<<>> Codename.U.N.C.L.E.2015.German.AC3LD.DL.720p.BluRa y.x264-HQX <<>>

[Link nur für registrierte und freigeschaltete Benutzer sichtbar]

Titel: Codename U N C L E
Genre: Action
Laufzeit: 116 Min.
Sprache/n: Englisch, Deutsch
Video Stream: BD
Audio Stream: Line
Format: MPEG-4 H.264 / AVC
Hoster: Uploaded.net, Share-online.biz
Groesse: 4702 MB
Passwort: - !!!Kein Passwort!!! -

Beschreibung:

Anfang der 1960er Jahre. Auf dem Höhepunkt des Kalten Krieges kommt es zu einer brisanten Zusammenarbeit zwischen den zwei Supermächten USA und Sowjetunion: CIA-Agent Napoleon Solo (Henry Cavill) und KGB-Spion Illya Kuryakin (Armie Hammer) sind gezwungen, die Feindseligkeiten ruhen zu lassen, um gemeinsam ein geheimnisvolles internationales Verbrechersyndikat, dessen massive Produktion von Atomwaffen das Gleichgewicht der Supermächte bedroht, zu überführen. Bei der Mission sind die Agenten auf die Hilfe eines verschwundenen deutschen Wissenschaftlers angewiesen. Nur dieser ist in der Lage, Solo und Kuryakin in das Syndikat einzuschleusen. Mit Hilfe der Tochter des Verschollenen machen sich die zwei Spione auf die Suche und ein Wettlauf gegen die Zeit beginnt.

nfo:

General
Unique ID : 185601620549315050070766856372702001591 (0x8BA192665A31082EBBD85CF3BC3DB9B7)
Complete name : Codename.U.N.C.L.E.2015.German.AC3LD.DL.720p.BluRa y.x264-HQX\Codename.U.N.C.L.E.2015.German.AC3LD.DL.720p.B luRay.x264-HQX.mkv
Format : Matroska
Format version : Version 2
File size : 4.55 GiB
Duration : 1h 56mn
Overall bit rate : 5 594 Kbps
Encoded date : UTC 2015-11-06 17:43:05
Writing application : mkvmerge v3.4.0 ('Rapunzel') built on May 15 2010 09:38:20
Writing library : libebml v0.8.0 + libmatroska v0.9.0

Video
ID : 1
Format : AVC
Format/Info : Advanced Video Codec
Format profile : [email protected]
Format settings, CABAC : Yes
Format settings, ReFrames : 5 frames
Codec ID : V_MPEG4/ISO/AVC
Duration : 1h 56mn
Bit rate : 4 730 Kbps
Width : 1 280 pixels
Height : 536 pixels
Display aspect ratio : 2.40:1
Frame rate mode : Constant
Frame rate : 23.976 fps
Color space : YUV
Chroma subsampling : 4:2:0
Bit depth : 8 bits
Scan type : Progressive
Bits/(Pixel*Frame) : 0.288
Stream size : 3.76 GiB (83%)
Writing library : x264 core 148 r2638 7599210
Encoding settings : cabac=1 / ref=5 / deblock=1:0:0 / analyse=0x3:0x133 / me=umh / subme=7 / psy=1 / psy_rd=1.00:0.00 / mixed_ref=1 / me_range=16 / chroma_me=1 / trellis=1 / 8x8dct=1 / cqm=0 / deadzone=21,11 / fast_pskip=0 / chroma_qp_offset=-2 / threads=12 / lookahead_threads=2 / sliced_threads=0 / nr=0 / decimate=1 / interlaced=0 / bluray_compat=0 / constrained_intra=0 / bframes=3 / b_pyramid=2 / b_adapt=1 / b_bias=0 / direct=1 / weightb=1 / open_gop=0 / weightp=2 / keyint=250 / keyint_min=23 / scenecut=40 / intra_refresh=0 / rc_lookahead=40 / rc=2pass / mbtree=1 / bitrate=4730 / ratetol=1.0 / qcomp=0.60 / qpmin=0 / qpmax=69 / qpstep=4 / cplxblur=20.0 / qblur=0.5 / ip_ratio=1.40 / aq=1:1.00
Language : English
Default : No
Forced : No

Audio #1
ID : 2
Format : AC-3
Format/Info : Audio Coding 3
Mode extension : CM (complete main)
Format settings, Endianness : Big
Codec ID : A_AC3
Duration : 1h 56mn
Bit rate mode : Constant
Bit rate : 224 Kbps
Channel count : 2 channels
Channel positions : Front: L R
Sampling rate : 48.0 KHz
Bit depth : 16 bits
Compression mode : Lossy
Delay relative to video : 1s 800ms
Stream size : 187 MiB (4%)
Language : German
Default : Yes
Forced : Yes

Audio #2
ID : 3
Format : AC-3
Format/Info : Audio Coding 3
Mode extension : CM (complete main)
Format settings, Endianness : Big
Codec ID : A_AC3
Duration : 1h 56mn
Bit rate mode : Constant
Bit rate : 640 Kbps
Channel count : 6 channels
Channel positions : Front: L C R, Side: L R, LFE
Sampling rate : 48.0 KHz
Bit depth : 16 bits
Compression mode : Lossy
Stream size : 533 MiB (11%)
Language : English
Default : No
Forced : No

Menu
00:00:00.000 : en:00:00:00.000
00:15:19.085 : en:00:15:19.085
00:23:11.682 : en:00:23:11.682
00:32:09.302 : en:00:32:09.302
00:40:36.059 : en:00:40:36.059
00:49:07.570 : en:00:49:07.570
00:59:23.560 : en:00:59:23.560
01:08:52.837 : en:01:08:52.837
01:20:28.115 : en:01:20:28.115
01:29:47.674 : en:01:29:47.674
01:43:21.362 : en:01:43:21.362
01:49:23.432 : en:01:49:23.432[Link nur für registrierte und freigeschaltete Benutzer sichtbar]

[Link nur für registrierte und freigeschaltete Benutzer sichtbar]
<<[Link nur für registrierte und freigeschaltete Benutzer sichtbar]>> Uploaded.net <<[Link nur für registrierte und freigeschaltete Benutzer sichtbar]>>
>>>>>DOWNLOAD<<<<< ([Link nur für registrierte und freigeschaltete Benutzer sichtbar])

[Link nur für registrierte und freigeschaltete Benutzer sichtbar]
<<[Link nur für registrierte und freigeschaltete Benutzer sichtbar]>> Share-online.biz <<[Link nur für registrierte und freigeschaltete Benutzer sichtbar]>>
>>>>>DOWNLOAD<<<<< ([Link nur für registrierte und freigeschaltete Benutzer sichtbar])