PDA

Archiv verlassen und diese Seite im Standarddesign anzeigen : Sons of Anarchy S03 Complete German DL 720p BluRay x264 - iNTENTiON



Baumkuschler
17.07.14, 10:03
Sons of Anarchy S03 Complete German DL 720p BluRay x264 - iNTENTiON

Staffel Komplett!

[Link nur für registrierte und freigeschaltete Benutzer sichtbar]

Release: 2013
Language: Deutsch
Genre: Krimi
Format: MKV
Duration: ~40 Minuten/Episode
Resolution: 720p
Video Codec: h.264 @~3232kb/s
Tonspur: DE: DTS 5.1 @755kb/s // EN: AC3 5.1 @640kb/s
Untertitel: -
Source: BD
Total Size: ~1.6GB/Episode

Hoster:
[Link nur für registrierte und freigeschaltete Benutzer sichtbar] | [Link nur für registrierte und freigeschaltete Benutzer sichtbar]


Sons of Anarchy S03

Klappentext


“Sons of Anarchy” handelt von den Machenschaften des Motorad-Clubs “SAMCRO” (Sons of Anarchy Motorcycle Club, Redwood Original) in “Charming”, einer fiktiven Kleinstadt im Norden Kalifornien. Offiziell betreiben sie eine Auto- und Motorrad-Werkstatt, inoffiziell verdienen sie ihr Geld mit Waffenhandel und Prostitution. Neben den Revier-Kämpfen mit anderen Gangs, bei denen es regelmässig hart zur Sache geht, spielt aber auch das Familienleben der Biker eine sehr grosse Rolle. Präsident der “Familie” ist “Clay Morrow” (gespielt von Ron Perlman (“Hellboy”)), der mit harten Bandagen sein Amt führt. Seine Frau “Gemma” (Katey Sagal, “Peggy Bundy”) hält allerdings alles zusammen, auf ihre ganz eigene Art (Für diese Rolle hat sie 2010 einen Golden Globe bekommen).

Der Rebell in der Truppe ist “Jackson ‘Jax’ Teller” (Charlie Hunnam), der eines Tages das Amt seines Vaters erben wird. Er ist der Sohn des verstorbenen “John Teller”, der zusammen mit “Clay” den Club gegründet hat. Er kommt wieder zusammen mit seiner Jugendliebe “Tara Knowles” (Maggie Siff, “Mad Men”), die nach vielen Jahren zurück nach “Charming” kommt und für Unmut im Kreise der Familie sorgt, während seine aktuelle, drogensüchtige Freundin “Wendy” gerade ein Kind von ihm geboren hat …



Episoden:


Sons.of.Anarchy.S03E01.Abel.DL.720p.BluRay.x264-iNTENTiON
Sons.of.Anarchy.S03E02.Letzte.Ölung.German.DL.720p .BluRay.x264-iNTENTiON
Sons.of.Anarchy.S03E03.Fürsorge.German.DL.720p.Blu Ray.x264-iNTENTiON
Sons.of.Anarchy.S03E04.Daheim.German.DL.720p.BluRa y.x264-iNTENTiON
Sons.of.Anarchy.S03E05.Die.Welt.verfällt.German.DL .720p.BluRay.x264-iNTENTiON
Sons.of.Anarchy.S03E06.Abgeschoben.German.DL.720p. BluRay.x264-iNTENTiON
Sons.of.Anarchy.S03E07.Weite.Kreise.German.DL.720p .BluRay.x264-iNTENTiON
Sons.of.Anarchy.S03E08.Übersee.German.DL.720p.BluR ay.x264-iNTENTiON
Sons.of.Anarchy.S03E09.Dungloe.German.DL.720p.BluR ay.x264-iNTENTiON
Sons.of.Anarchy.S03E10.Nichts als die Wahrheit.German.DL.720p.BluRay.x264-iNTENTiON
Sons.of.Anarchy.S03E11.Milch.German.DL.720p.BluRay .x264-iNTENTiON
Sons.of.Anarchy.S03E12.Bis.dass.der.Tod....German. DL.720p.BluRay.x264-iNTENTiON
Sons.of.Anarchy.S03E13.NS.German.DL.720p.BluRay.x2 64-iNTENTiON



Download Ein DLC-File | Folgen einzeln wählbar

[Link nur für registrierte und freigeschaltete Benutzer sichtbar] Sons of Anarchy S03 720p - ul.to, share-online.biz ([Link nur für registrierte und freigeschaltete Benutzer sichtbar])

Download UL/SO Sons of Anarchy S03 720p ([Link nur für registrierte und freigeschaltete Benutzer sichtbar]) [Link nur für registrierte und freigeschaltete Benutzer sichtbar]



Passwort

SP



Viel Spaß beim Sehen!

SuBuricu
27.09.15, 20:26
Sons Of Anarchy S03 German DL 720p BluRay x264 - iNTENTiON

[Link nur für registrierte und freigeschaltete Benutzer sichtbar]

In der dritten Staffel des Serienhits von Produzent und Autor und Schauspieler Kurt Sutter wird Jax (Charlie Hunnam), Sohn des Gründers des gesetzlosen Biker-Clubs „Sons Of Anarchy“, von den Sünden seines Vaters eingeholt. Die Entführung von Jax' kleinem Sohn Abel löst Chaos und Verwirrung aus und dass Gemma (Katey Sagal) ein Mord in die Schuhe geschoben wird, verschärft die Situation noch mehr. Abels Spuren führen SAMCRO nach Irland und schließlich kommen Geheimnisse ans Licht, die die Bruderschaft schwer erschüttern. Jax kämpft mit Fragen, auf die er keine Antworten findet – und dabei geht es für ihn um alles: das Erbe seines Vaters, die Zukunft des Clubs und nicht zuletzt das Schicksal seiner Familie.

Länge: ca. 42 Min.
Container: mkv
AudioFormat: GER: DTS 6CH 768 kbps, ENG: AC3 6CH 640 kbps
Sprache: GER, ENG
Größe: ca. 1,5 GB je Folge
Package: 1 GB / 1x gepackt / einzeln ladbar
kein Passwort

Hoster:
[Link nur für registrierte und freigeschaltete Benutzer sichtbar] [Link nur für registrierte und freigeschaltete Benutzer sichtbar]

Mediainfo (beispielhaft für die ganze Staffel):

General
Complete name : Sons.of.Anarchy.S03E05.Die.Welt.verfällt.German.DL .720p.BluRay.x264-iNTENTiON.mkv
Format : Matroska
Format version : Version 2
File size : 1.26 GiB
Duration : 43mn 31s
Overall bit rate : 4 131 Kbps
Writing application : mkvmerge v4.1.1 ('Bouncin' Back') built on Jul 3 2010 22:54:08
Writing library : libebml v1.0.0 + libmatroska v1.0

Video
ID : 1
Format : AVC
Format/Info : Advanced Video Codec
Format profile : [email protected]
Format settings, CABAC : Yes
Format settings, ReFrames : 5 frames
Codec ID : V_MPEG4/ISO/AVC
Duration : 43mn 31s
Bit rate : 2 640 Kbps
Width : 1 280 pixels
Height : 720 pixels
Display aspect ratio : 16:9
Frame rate mode : Constant
Frame rate : 23.976 fps
Color space : YUV
Chroma subsampling : 4:2:0
Bit depth : 8 bits
Scan type : Progressive
Bits/(Pixel*Frame) : 0.119
Stream size : 822 MiB (64%)
Writing library : x264 core 140 r2377 1ca7bb9
Encoding settings : cabac=1 / ref=5 / deblock=1:-3:-3 / analyse=0x3:0x133 / me=umh / subme=7 / psy=1 / psy_rd=1.00:0.15 / mixed_ref=1 / me_range=16 / chroma_me=1 / trellis=1 / 8x8dct=1 / cqm=0 / deadzone=21,11 / fast_pskip=0 / chroma_qp_offset=-3 / threads=12 / lookahead_threads=2 / sliced_threads=0 / nr=0 / decimate=1 / interlaced=0 / bluray_compat=0 / constrained_intra=0 / bframes=3 / b_pyramid=2 / b_adapt=1 / b_bias=0 / direct=3 / weightb=1 / open_gop=0 / weightp=2 / keyint=240 / keyint_min=23 / scenecut=40 / intra_refresh=0 / rc_lookahead=40 / rc=crf / mbtree=1 / crf=20.0 / qcomp=0.60 / qpmin=0 / qpmax=69 / qpstep=4 / ip_ratio=1.40 / aq=1:1.00
Language : English
Default : Yes
Forced : No

Audio #1
ID : 2
Format : DTS
Format/Info : Digital Theater Systems
Mode : 16
Format settings, Endianness : Big
Codec ID : A_DTS
Duration : 43mn 31s
Bit rate mode : Constant
Bit rate : 768 Kbps
Channel(s) : 6 channels
Channel positions : Front: L C R, Side: L R, LFE
Sampling rate : 48.0 KHz
Bit depth : 24 bits
Compression mode : Lossy
Stream size : 239 MiB (19%)
Title : DTS
Language : German
Default : Yes
Forced : No

Audio #2
ID : 3
Format : AC-3
Format/Info : Audio Coding 3
Mode extension : CM (complete main)
Format settings, Endianness : Big
Codec ID : A_AC3
Duration : 43mn 31s
Bit rate mode : Constant
Bit rate : 640 Kbps
Channel(s) : 6 channels
Channel positions : Front: L C R, Side: L R, LFE
Sampling rate : 48.0 KHz
Compression mode : Lossy
Stream size : 199 MiB (15%)
Title : AC3
Language : English
Default : Yes
Forced : No


[Link nur für registrierte und freigeschaltete Benutzer sichtbar] ([Link nur für registrierte und freigeschaltete Benutzer sichtbar])
[Link nur für registrierte und freigeschaltete Benutzer sichtbar] ([Link nur für registrierte und freigeschaltete Benutzer sichtbar])