PDA

Archiv verlassen und diese Seite im Standarddesign anzeigen : Mission Impossible Rogue Nation 2015 German AC3 Dubbed DL 1080p WEBRiP x264 - H



Checcker
10.10.15, 13:51
Mission.Impossible.Rogue.Nation.2015.German.AC3.Du bbed.DL.1080p.WEBRiP.x264-H

[Link nur für registrierte und freigeschaltete Benutzer sichtbar]

Genre: Thriller
Laufzeit: 131 Min.
Sprache/n: Englisch, Deutsch
Größe: 7662 MB
Parts: 39 Dateien

Beschreibung
Ethan Hunts fünfte Mission erweist sich als die vielleicht unmöglichste seiner langen und erfolgreichen Karriere als Geheimagent: Nachdem das Pentagon die IMF aufgelöst hat, ist er ohne jegliche Unterstützung der Regierung dem geheimnisvollen "Syndikat" auf der Spur, das sich bald als sein bislang mächtigster Gegner erweisen wird. Denn die Gerüchte um eine gefährliche internationale Untergrundorganisation aus hoch qualifizierten Spezialagenten haben sich als bittere Realität erwiesen. Deren oberstes Ziel: die ehemaligen Mitglieder der IMF auszulöschen und durch skrupellose Anschläge eine neue Weltordnung zu schaffen. Um die gefährliche und hocheffiziente Terrororganisation aufzuhalten, muss Hunt sein einzigartiges Team versammeln. Hilfe bietet auch die geheimnisvolle Agentin Ilsa Faust an - doch als wie zuverlässig wird sie sich erweisen?


Release NFO

General
Format : Matroska
File size : 7.48 GiB
Duration : 2h 11mn
Overall bit rate : 8 157 Kbps


Video
ID : 2
Format : AVC
Format/Info : Advanced Video Codec
Format profile : Baseline@L4
Format settings, CABAC : No
Format settings, ReFrames : 1 frame
Format settings, GOP : M=1, N=25
Codec ID : V_MPEG4/ISO/AVC
Duration : 2h 11mn
Bit rate : 7 803 Kbps
Width : 1 910 pixels
Height : 1 074 pixels
Display aspect ratio : 16:9
Frame rate mode : Constant
Frame rate : 25.000 fps
Color space : YUV
Chroma subsampling : 4:2:0
Bit depth : 8 bits
Scan type : Progressive
Bits/(Pixel*Frame) : 0.152
Stream size : 7.16 GiB (96%)
Language : English
Default : Yes
Forced : No

Audio
ID : 1
Format : AC-3
Format/Info : Audio Coding 3
Mode extension : CM (complete main)
Format settings, Endianness : Big
Codec ID : A_AC3
Duration : 2h 11mn
Bit rate mode : Constant
Bit rate : 192 Kbps
Channel(s) : 2 channels
Channel positions : Front: L R
Sampling rate : 48.0 KHz
Bit depth : 32 bits
Compression mode : Lossy
Delay relative to video : 96ms
Stream size : 180 MiB (2%)
Language : German
Default : Yes
Forced : No [Link nur für registrierte und freigeschaltete Benutzer sichtbar]
Mission.Impossible.Rogue.Nation.2015.German.AC3.Du bbed.DL.1080p.WEBRiP.x264-H ([Link nur für registrierte und freigeschaltete Benutzer sichtbar])

[Link nur für registrierte und freigeschaltete Benutzer sichtbar]
Mission.Impossible.Rogue.Nation.2015.German.AC3.Du bbed.DL.1080p.WEBRiP.x264-H ([Link nur für registrierte und freigeschaltete Benutzer sichtbar])