PDA

Archiv verlassen und diese Seite im Standarddesign anzeigen : Grand Budapest Hotel 2014 German DTS 1080p BluRay x264 - ThreeT



alando22
17.07.14, 08:32
Grand.Budapest.Hotel.2014.German.DTS.1080p.BluRay. x264-ThreeT

[Link nur für registrierte und freigeschaltete Benutzer sichtbar]

Ein Schriftsteller kommt im Grand Budapest Hotel, das schon bessere Zeiten erlebt hat, mit einem älteren Stammgast ins Gespräch. Er erfährt, dass ihm das Hotel einstmals gehörte und er dort als Lobbyboy angefangen hatte. Zu einer Zeit, als der galante Monsieur Gustave noch für makellosen Service sorgte - insbesondere gegenüber der älteren, weiblichen Klientel. Er erzählt von einem wahrlich erstaunlichen Abenteuer, als Gustave im Testament einer millionenschweren Witwe berücksichtigt und bald als deren Mörder gejagt wird.

Monsieur Gustave ist der perfekte Concierge des Grand Budapest Hotel und muss fliehen, als er eines Mordes verdächtigt wird. Herrlich skurrile und charmante Komödie von Wes Anderson ("Die Royal Tenenbaums").



General
Format : Matroska
Format version : Version 1
File size : 10.3 GiB
Duration : 1h 45mn
Overall bit rate : 14.0 Mbps
Encoded date : UTC 2014-07-12 06:41:46
Writing application : mkvmerge v2.6.0 ('Kelly watch the Stars') built on Mar 24 2009 15:23:17
Writing library : libebml v0.7.7 + libmatroska v0.8.1

Video
ID : 1
Format : AVC
Format/Info : Advanced Video Codec
Format profile : High@L4.1
Format settings, CABAC : Yes
Format settings, ReFrames : 4 frames
Codec ID : V_MPEG4/ISO/AVC
Duration : 1h 45mn
Bit rate : 12.9 Mbps
Nominal bit rate : 14.0 Mbps
Width : 1 920 pixels
Height : 1 036 pixels
Display aspect ratio : 1.853
Frame rate : 23.976 fps
Color space : YUV
Chroma subsampling : 4:2:0
Bit depth : 8 bits
Scan type : Progressive
Bits/(Pixel*Frame) : 0.271
Stream size : 9.54 GiB (93%)
Writing library : x264 core 138 r2358 9e941d1


Audio
ID : 2
Format : DTS
Format/Info : Digital Theater Systems
Codec ID : A_DTS
Duration : 1h 45mn
Bit rate mode : Constant
Bit rate : 754 Kbps
Channel(s) : 6 channels
Channel positions : Front: L C R, Side: L R, LFE
Sampling rate : 48.0 KHz
Bit depth : 24 bits
Compression mode : Lossy
Stream size : 570 MiB (5%)
Language : German
Default : Yes
Forced : No





# Share-Online, Uploaded
Freeuser freundliche 1 GB-Parts
[Link nur für registrierte und freigeschaltete Benutzer sichtbar] Grand.Budapest.Hotel.2014.German.DTS.1080p.BluRay. x264-ThreeT ([Link nur für registrierte und freigeschaltete Benutzer sichtbar])