PDA

Archiv verlassen und diese Seite im Standarddesign anzeigen : xXx State of the Union xXx 2 The Next Level 2005 1080p AC3 DL x264 - HDC



Zarroc
17.07.14, 08:03
xXx.2.The.Next.Level.2005.1080p.AC3.DL.x264-HDC
aka "xXx: State of the Union"

[Link nur für registrierte und freigeschaltete Benutzer sichtbar]


Der NSA-Agent Augustus Eugene Gibbons (Samuel L. Jackson) kann gemeinsam mit dem Waffen- und Gadget-Experten Toby Lee Shavers (Michael Roof) einem Anschlag auf einen geheimen Stützpunkt überleben, muss sich nun aber bedeckt halten, um den Strippenziehern hinter dem Angriff auf die Schliche zu kommen. Hierfür braucht er einen geeigneten, unbekannten Feld-Agenten, der bereit ist, über die üblichen Grenzen hinwegzugehen. Der ehemalige Navy SEAL Darius Stone (Ice Cube) ist die ideale Wahl, auch weil er auf eine solche Gelegenheit angewiesen ist. Schließlich sitzt er im Gefängnis und hat nur so eine Aussicht auf Freiheit. Nachdem Stone aus dem Knast geholt wurde, macht dieser eine schreckliche Entdeckung. Die Attacke auf die NSA wurde offenbar vom US-Verteidigungsminister George Octavius Deckert (Willem Dafoe) angeordnet...

MediaInfo:

General
Unique ID : 191289851541720584664109155590708916745 (0x8FE915D726122898B417CBC451D3F209)
Complete name : xXx.2.The.Next.Level.2005.1080p.AC3.DL.x264-HDC.mkv
Format : Matroska
Format version : Version 2
File size : 15.7 GiB
Duration : 1h 40mn
Overall bit rate : 22.3 Mbps
Movie name : xXx.2.The.Next.Level.2005.1080p.AC3.DL.x264-HDC
Encoded date : UTC 2012-01-31 13:15:10
Writing application : mkvmerge v5.2.1 ('A Far Off Place') built on Jan 2 2012 23:21:10
Writing library : libebml v1.2.3 + libmatroska v1.3.0

Video
ID : 1
Format : AVC
Format/Info : Advanced Video Codec
Format profile : High@L4.1
Format settings, CABAC : Yes
Format settings, ReFrames : 5 frames
Codec ID : V_MPEG4/ISO/AVC
Duration : 1h 40mn
Bit rate : 20.6 Mbps
Width : 1 920 pixels
Height : 800 pixels
Display aspect ratio : 2.40:1
Frame rate mode : Constant
Frame rate : 23.976 fps
Color space : YUV
Chroma subsampling : 4:2:0
Bit depth : 8 bits
Scan type : Progressive
Bits/(Pixel*Frame) : 0.560
Stream size : 14.2 GiB (91%)
Title : xXx.2.The.Next.Level.2005.1080p.AC3.DL.x264-HDC
Writing library : x264 core 120 r2146+650 183470d
Encoding settings : cabac=1 / ref=5 / deblock=1:-1:-2 / analyse=0x3:0x113 / me=umh / subme=10 / psy=1 / fade_compensate=0.80 / psy_rd=0.80:0.00 / mixed_ref=1 / me_range=64 / chroma_me=1 / trellis=2 / 8x8dct=1 / cqm=0 / deadzone=21,11 / fast_pskip=1 / chroma_qp_offset=-2 / threads=12 / sliced_threads=0 / nr=0 / decimate=1 / interlaced=0 / bluray_compat=0 / constrained_intra=0 / fgo=0 / bframes=5 / b_pyramid=2 / b_adapt=2 / b_bias=0 / direct=3 / weightb=1 / open_gop=0 / weightp=2 / keyint=250 / keyint_min=23 / scenecut=40 / intra_refresh=0 / rc_lookahead=120 / rc=2pass / mbtree=1 / bitrate=20611 / ratetol=1.0 / qcomp=0.80 / qpmin=0 / qpmax=69 / qpstep=4 / cplxblur=20.0 / qblur=0.5 / ip_ratio=1.40 / aq=3:0.80
Default : Yes
Forced : No
Matrix coefficients : BT.709

Audio #1
ID : 2
Format : AC-3
Format/Info : Audio Coding 3
Mode extension : CM (complete main)
Format settings, Endianness : Big
Codec ID : A_AC3
Duration : 1h 40mn
Bit rate mode : Constant
Bit rate : 640 Kbps
Channel(s) : 6 channels
Channel positions : Front: L C R, Side: L R, LFE
Sampling rate : 48.0 KHz
Bit depth : 16 bits
Compression mode : Lossy
Stream size : 462 MiB (3%)
Title : German Audio
Language : German
Default : Yes
Forced : No

Audio #2
ID : 3
Format : AC-3
Format/Info : Audio Coding 3
Mode extension : CM (complete main)
Format settings, Endianness : Big
Codec ID : A_AC3
Duration : 1h 40mn
Bit rate mode : Constant
Bit rate : 640 Kbps
Channel(s) : 6 channels
Channel positions : Front: L C R, Side: L R, LFE
Sampling rate : 48.0 KHz
Bit depth : 16 bits
Compression mode : Lossy
Stream size : 462 MiB (3%)
Title : English Audio
Language : English
Default : No
Forced : No

Audio #3
ID : 4
Format : AC-3
Format/Info : Audio Coding 3
Format profile : Dolby Digital
Mode extension : CM (complete main)
Format settings, Endianness : Big
Codec ID : A_AC3
Duration : 1h 40mn
Bit rate mode : Constant
Bit rate : 192 Kbps
Channel(s) : 2 channels
Channel positions : Front: L R
Sampling rate : 48.0 KHz
Bit depth : 16 bits
Compression mode : Lossy
Stream size : 139 MiB (1%)
Title : Filmcrew Commentary
Language : English
Default : No
Forced : No

Audio #4
ID : 5
Format : AC-3
Format/Info : Audio Coding 3
Format profile : Dolby Digital
Mode extension : CM (complete main)
Format settings, Endianness : Big
Codec ID : A_AC3
Duration : 1h 40mn
Bit rate mode : Constant
Bit rate : 192 Kbps
Channel(s) : 2 channels
Channel positions : Front: L R
Sampling rate : 48.0 KHz
Bit depth : 16 bits
Compression mode : Lossy
Stream size : 139 MiB (1%)
Title : Special Effects Crew Commentary
Language : English
Default : No
Forced : No

Text #1
ID : 6
Format : VobSub
Muxing mode : zlib
Codec ID : S_VOBSUB
Codec ID/Info : The same subtitle format used on DVDs
Title : German Subs
Language : German
Default : No
Forced : No

Text #2
ID : 7
Format : VobSub
Muxing mode : zlib
Codec ID : S_VOBSUB
Codec ID/Info : The same subtitle format used on DVDs
Title : English Subs
Language : English
Default : No
Forced : No

Text #3
ID : 8
Format : VobSub
Muxing mode : zlib
Codec ID : S_VOBSUB
Codec ID/Info : The same subtitle format used on DVDs
Title : German Director Commentary
Language : German
Default : No
Forced : No

Text #4
ID : 9
Format : VobSub
Muxing mode : zlib
Codec ID : S_VOBSUB
Codec ID/Info : The same subtitle format used on DVDs
Title : German Special Effects Commentary
Language : German
Default : No
Forced : No

Menu
00:00:00.000 : :00:00:00.000
00:06:28.554 : :00:06:28.554
00:13:34.522 : :00:13:34.522
00:20:37.110 : :00:20:37.110
00:25:34.032 : :00:25:34.032
00:31:07.699 : :00:31:07.699
00:37:02.553 : :00:37:02.553
00:40:11.659 : :00:40:11.659
00:47:22.256 : :00:47:22.256
00:53:31.666 : :00:53:31.666
01:01:04.786 : :01:01:04.786
01:04:46.507 : :01:04:46.507
01:10:44.114 : :01:10:44.114
01:18:12.771 : :01:18:12.771
01:23:11.444 : :01:23:11.444
01:28:15.790 : :01:28:15.790



NFO:

HHHHHHHHH HHHHHHHHHDDDDDDDDDDDDD CCCCCCCCCCCCC
H:::::::H H:::::::HD::::::::::::DDD CCC::::::::::::C
H:::::::H H:::::::HD:::::::::::::::DD CC:::::::::::::::C
HH::::::H H::::::HHDDD:::::DDDDD:::::D C:::::CCCCCCCC::::C
H:::::H H:::::H D:::::D D:::::D C:::::C CCCCCC
H:::::H H:::::H D:::::D D:::::DC:::::C
H::::::HHHHH::::::H D:::::D D:::::DC:::::C
H:::::::::::::::::H D:::::D D:::::DC:::::C
H:::::::::::::::::H D:::::D D:::::DC:::::C
H::::::HHHHH::::::H D:::::D D:::::DC:::::C
H:::::H H:::::H D:::::D D:::::DC:::::C
H:::::H H:::::H D:::::D D:::::D C:::::C CCCCCC
HH::::::H H::::::HHDDD:::::DDDDD:::::D C:::::CCCCCCCC::::C
H:::::::H H:::::::HD:::::::::::::::DD CC:::::::::::::::C
H:::::::H H:::::::HD::::::::::::DDD CCC::::::::::::C
HHHHHHHHH HHHHHHHHHDDDDDDDDDDDDD CCCCCCCCCCCCC

--- What else ---
------------------------------------------------------------------


Proudly presents



xXx.2.The.Next.Level.2005.1080p.AC3.DL.x264-HDC


Director
Lee Tamahori


Genre
Action | Crime | Adventure | Thriller

Tagline
The greatest threat to our nation comes from within.


Plot
Darius Stone, a new agent in the XXX program, is sent to Washington, DC to defuse a power struggle amongst national leaders.


General Information
RELEASE.DATE...........: 31.01.2012
RUNTIME................: 01h:40m:58s
SIZE...................: 15.7 GB
VIDEO.CODEC............: x264 [LVL4.1][DXVA]
FRAMERATE..............: 23.976 fps
BITRATE................: 20611 kbps
RESOLUTION.............: 1920x800 [AR 2.4:1]
PRIMARY.AUDIO..........: German 5.1 AC3 @ 640 kbps (core of TrueHD)
SECONDARY.AUDIO........: English 5.1 AC3 @ 640 kbps (core of TrueHD)
PRIMARY.COMMENTARY.....: English 2.0 AC3 @ 192 kbps
SECONDARY.COMMENTARY...: English 2.0 AC3 @ 192 kbps
SUBTITLES..............: German, English, German Director Commentary,
German Special Effects Commentary
CHAPTERS...............: Yes
IMDB.LINK..............: [Link nur für registrierte und freigeschaltete Benutzer sichtbar]
IMDB.RATING............: 4.1/10 (25,722 votes)


x264 [info]: profile High, level 4.1

x264 [info]: frame I:1531 Avg QP:15.43 size:294718
x264 [info]: frame P:36754 Avg QP:17.75 size:131352
x264 [info]: frame B:106963 Avg QP:19.21 size: 96561
x264 [info]: consecutive B-frames: 4.3% 4.4% 7.8% 31.4% 22.0% 30.1%

x264 [info]: SSIM Mean Y:0.9795289 (16.889db)

encoded 145248 frames, 4.51 fps, 20610.51 kb/s


Sprache: Dubs: German, English; Subs: German, English
Länge: 1h 40mn
Größe: 15.7 GiB (17x1000MiB Parts)
Gruppe: HDC
Quelle: BluRay


[Link nur für registrierte und freigeschaltete Benutzer sichtbar]

Enthaltene Dateien:

xXx.2.The.Next.Level.2005.1080p.AC3.DL.x264-HDC.mkv
xXx.2.The.Next.Level.2005.1080p.AC3.DL.x264-HDC.nfo

Download:

[Link nur für registrierte und freigeschaltete Benutzer sichtbar] xXx.2.The.Next.Level.2005.1080p.AC3.DL.x264-HDC ([Link nur für registrierte und freigeschaltete Benutzer sichtbar])

1fichier, MEGA, Share-Online, Uploaded