PDA

Archiv verlassen und diese Seite im Standarddesign anzeigen : xXx - Triple X 2002 1080p BluRay DTS DL x264 - HDC



Zarroc
17.07.14, 09:01
xXx.2002.1080p.BluRay.DTS.DL.x264-HDC
aka "xXx - Triple X"

[Link nur für registrierte und freigeschaltete Benutzer sichtbar]


Die Extremsportler- und Underground-Legende Xander "xXx" Cage (Vin Diesel) hat einen beachtliches Strafregister angesammelt. Doch NSA-Agent Gibbons (Samuel L. Jackson) schlägt einen Deal vor. Wenn Cage für die NSA auf Verbrecherjagd geht, löscht er dessen beachtliches Vorstrafenregister. xXx willigt ein und findet sich kurze Zeit später zu seinem ersten Einsatz auf den Kokainplantagen Kolumbiens wieder. Nachdem sich Xander als Naturtalent herausstellt, wird er nach Prag beordert, um dort eine paramilitärische Untergrund-Organisation zu infiltrieren. Was zunächst als überschaubarer Einsatz gegen hochprofessionelle Autoschieber beginnt, entwickelt sich zu einem Kampf um die Rettung der freien Welt. Der Verbrecherring produziert im Geheimen biologische Waffen, mit denen eine neue Weltordnung erzwungen werden soll. Und Skrupel sind für die finsteren Osteuropäer ein Fremdwort. Unterstützung erhält xXx von seinem Prager Polizei-Kontaktmann (Richy Müller) und der ebenso undurchsichtigen wie hübschen Yelena (Asia Argento)...

MediaInfo:

General
Unique ID : 187865416691853278331336605219927117362 (0x8D55902ABD78FC19A2AA2E24E0584E32)
Complete name : xXx.2002.1080p.BluRay.DTS.DL.x264-HDC.mkv
Format : Matroska
Format version : Version 4 / Version 2
File size : 14.0 GiB
Duration : 2h 4mn
Overall bit rate : 16.1 Mbps
Encoded date : UTC 2013-06-01 12:48:37
Writing application : mkvmerge v6.2.0 ('Promised Land') built on Apr 28 2013 12:22:01
Writing library : libebml v1.3.0 + libmatroska v1.4.0

Video
ID : 1
Format : AVC
Format/Info : Advanced Video Codec
Format profile : High@L4.1
Format settings, CABAC : Yes
Format settings, ReFrames : 4 frames
Codec ID : V_MPEG4/ISO/AVC
Duration : 2h 4mn
Bit rate : 13.8 Mbps
Width : 1 920 pixels
Height : 798 pixels
Display aspect ratio : 2.40:1
Frame rate mode : Constant
Frame rate : 23.976 fps
Color space : YUV
Chroma subsampling : 4:2:0
Bit depth : 8 bits
Scan type : Progressive
Bits/(Pixel*Frame) : 0.377
Stream size : 11.8 GiB (85%)
Writing library : x264 core 133 r2334 a3ac64b
Encoding settings : cabac=1 / ref=4 / deblock=1:-4:-3 / analyse=0x3:0x113 / me=umh / subme=11 / psy=1 / psy_rd=1.35:0.00 / mixed_ref=1 / me_range=24 / chroma_me=1 / trellis=2 / 8x8dct=1 / cqm=0 / deadzone=21,11 / fast_pskip=0 / chroma_qp_offset=-2 / threads=16 / lookahead_threads=1 / sliced_threads=0 / nr=0 / decimate=1 / interlaced=0 / bluray_compat=0 / constrained_intra=0 / bframes=5 / b_pyramid=2 / b_adapt=2 / b_bias=0 / direct=3 / weightb=1 / open_gop=0 / weightp=2 / keyint=250 / keyint_min=23 / scenecut=40 / intra_refresh=0 / rc_lookahead=88 / rc=2pass / mbtree=1 / bitrate=13838 / ratetol=1.0 / qcomp=0.80 / qpmin=0 / qpmax=69 / qpstep=4 / cplxblur=20.0 / qblur=0.5 / ip_ratio=1.40 / aq=1:0.80
Default : Yes
Forced : No

Audio #1
ID : 2
Format : DTS
Format/Info : Digital Theater Systems
Mode : 16
Format settings, Endianness : Big
Codec ID : A_DTS
Duration : 2h 4mn
Bit rate mode : Constant
Bit rate : 1 509 Kbps
Channel(s) : 6 channels
Channel positions : Front: L C R, Side: L R, LFE
Sampling rate : 48.0 KHz
Bit depth : 24 bits
Compression mode : Lossy
Stream size : 1.31 GiB (9%)
Title : 5.1 DTS @ 1509kbps
Language : German
Default : Yes
Forced : No

Audio #2
ID : 3
Format : AC-3
Format/Info : Audio Coding 3
Mode extension : CM (complete main)
Format settings, Endianness : Big
Codec ID : A_AC3
Duration : 2h 4mn
Bit rate mode : Constant
Bit rate : 640 Kbps
Channel(s) : 6 channels
Channel positions : Front: L C R, Side: L R, LFE
Sampling rate : 48.0 KHz
Bit depth : 16 bits
Compression mode : Lossy
Stream size : 568 MiB (4%)
Title : 5.1 AC3 @ 640kbps
Language : English
Default : No
Forced : No

Text #1
ID : 4
Format : VobSub
Codec ID : S_VOBSUB
Codec ID/Info : The same subtitle format used on DVDs
Title : VOB
Language : German
Default : No
Forced : No

Text #2
ID : 5
Format : PGS
Codec ID : S_HDMV/PGS
Codec ID/Info : The same subtitle format used on BDs/HD-DVDs
Title : PGS
Language : German
Default : No
Forced : No

Text #3
ID : 6
Format : VobSub
Codec ID : S_VOBSUB
Codec ID/Info : The same subtitle format used on DVDs
Title : VOB
Language : English
Default : No
Forced : No

Text #4
ID : 7
Format : PGS
Codec ID : S_HDMV/PGS
Codec ID/Info : The same subtitle format used on BDs/HD-DVDs
Title : PGS
Language : English
Default : No
Forced : No

Text #5
ID : 8
Format : VobSub
Codec ID : S_VOBSUB
Codec ID/Info : The same subtitle format used on DVDs
Title : Forced VOB
Language : German
Default : Yes
Forced : Yes

Text #6
ID : 9
Format : PGS
Codec ID : S_HDMV/PGS
Codec ID/Info : The same subtitle format used on BDs/HD-DVDs
Title : Forced PGS
Language : German
Default : No
Forced : No

Menu
00:00:00.000 : en:00:00:00.000
00:05:42.467 : en:00:05:42.467
00:12:31.459 : en:00:12:31.459
00:24:01.440 : en:00:24:01.440
00:32:29.823 : en:00:32:29.823
00:42:20.872 : en:00:42:20.872
00:50:27.691 : en:00:50:27.691
00:57:12.429 : en:00:57:12.429
01:04:35.872 : en:01:04:35.872
01:12:03.236 : en:01:12:03.236
01:21:01.565 : en:01:21:01.565
01:26:38.151 : en:01:26:38.151
01:32:46.603 : en:01:32:46.603
01:39:03.271 : en:01:39:03.271
01:45:59.061 : en:01:45:59.061
01:49:42.659 : en:01:49:42.659



NFO:

HHHHHHHHH HHHHHHHHHDDDDDDDDDDDDD CCCCCCCCCCCCC
H:::::::H H:::::::HD::::::::::::DDD CCC::::::::::::C
H:::::::H H:::::::HD:::::::::::::::DD CC:::::::::::::::C
HH::::::H H::::::HHDDD:::::DDDDD:::::D C:::::CCCCCCCC::::C
H:::::H H:::::H D:::::D D:::::D C:::::C CCCCCC
H:::::H H:::::H D:::::D D:::::DC:::::C
H::::::HHHHH::::::H D:::::D D:::::DC:::::C
H:::::::::::::::::H D:::::D D:::::DC:::::C
H:::::::::::::::::H D:::::D D:::::DC:::::C
H::::::HHHHH::::::H D:::::D D:::::DC:::::C
H:::::H H:::::H D:::::D D:::::DC:::::C
H:::::H H:::::H D:::::D D:::::D C:::::C CCCCCC
HH::::::H H::::::HHDDD:::::DDDDD:::::D C:::::CCCCCCCC::::C
H:::::::H H:::::::HD:::::::::::::::DD CC:::::::::::::::C
H:::::::H H:::::::HD::::::::::::DDD CCC::::::::::::C
HHHHHHHHH HHHHHHHHHDDDDDDDDDDDDD CCCCCCCCCCCCC

--- What else ---
------------------------------------------------------------------


Proudly presents


xXx.2002.1080p.BluRay.DTS.DL.x264-HDC


Genre.
Action | Thriller


Tagline.
If you want someone to save the world, make sure it's someone who likes the world as it is.


Plot.
Xander Cage is your standard adrenaline junkie with no fear and a lousy attitude.
When the US Government "recruits" him to go on a mission, he's not exactly thrilled.
His mission: to gather information on an organization that may just be planning the destruction of the world,
led by the nihilistic Yorgi.


General Information.
Release.Name.........: xXx.2002.1080p.BluRay.DTS.DL.x264-HDC
Release.Date ........: 02.06.2013
RUNTIME..............: 02h:04m:08s
SIZE.................: 13.9 GB
VIDEO CODEC..........: x264
FRAMERATE............: 23.976 fps
BITRATE..............: 13839 kbps [Source=35005 kbps]
RESOLUTION...........: 1920x798 [AR 2.41:1]
AUDIO.1..............: German 5.1 DTS @ 1509 kbps
AUDIO.2..............: English 5.1 AC3 @ 640 kbps
SUBTITLES............: German, English
FORCED.SUBTITLES.....: German
CHAPTERS.............: Yes, like BluRay
SOURCE...............: xXx 2002 JPN 1080p Blu-ray AVC TrueHD 5.1-HDCLUB & the xXx.-.Triple.X.2002.German.DTS-HD-MA.5.1.BluRay-iNCEPTiON thx
ENCODER..............: jumala
IMDB.RATING..........: 5,7/10 from 102183 votes
IMDB.LINK............: [Link nur für registrierte und freigeschaltete Benutzer sichtbar]





x264 [info]: profile High, level 4.1
x264 [info]: frame I:1561 Avg QP:18.52 size:230285
x264 [info]: frame P:44892 Avg QP:21.28 size: 87724
x264 [info]: frame B:132065 Avg QP:22.17 size: 64982
x264 [info]: consecutive B-frames: 4.1% 5.0% 10.9% 18.7% 26.0% 35.3%
x264 [info]: SSIM Mean Y:0.9645563

encoded 178518 frames, 2.62 fps, 13838.30 kb/s

Sprache: Dubs: German, English; Subs: German, English
Länge: 2h 4mn
Größe: 14.0 GiB (15x1000MiB Parts)
Gruppe: HDC
Quelle: BluRay


[Link nur für registrierte und freigeschaltete Benutzer sichtbar]

Enthaltene Dateien:

xXx.2002.1080p.BluRay.DTS.DL.x264-HDC.mkv
xXx.2002.1080p.BluRay.DTS.DL.x264-HDC.nfo

Download:

[Link nur für registrierte und freigeschaltete Benutzer sichtbar] xXx.2002.1080p.BluRay.DTS.DL.x264-HDC ([Link nur für registrierte und freigeschaltete Benutzer sichtbar])

1fichier, MEGA, Share-Online, Uploaded