PDA

Archiv verlassen und diese Seite im Standarddesign anzeigen : Operation Walküre Das Stauffenberg Attentat Valkyrie 2008 1080p BluRay DTS DL x264 - HDC



Zarroc
17.07.14, 07:58
Valkyrie.2008.1080p.BluRay.DTS.DL.x264-HDC
aka "Operation Walküre - Das Stauffenberg-Attentat"

[Link nur für registrierte und freigeschaltete Benutzer sichtbar]


Nachdem er von der Front in Nordafrika verletzt nach Deutschland zurückgekehrt ist, schließt sich Claus Schenk Graf von Stauffenberg (Tom Cruise) einer Gruppe ranghoher Offiziere an, die planen, Adolf Hitler (David Bamber) zu töten. Unter der Federführung Stauffenbergs wird ein vielversprechender, aber riskanter Plan ausgeheckt: Würde man nur Hitler auslöschen, wäre damit das Naziregime noch lange nicht besiegt. Deshalb soll nicht nur ein Bombenattentat auf Hitler verübt, sondern zugleich auch die Kontrolle über das Militär gewonnen werden. Doch am 20. Juli 1944 geht einiges schief - Hitler überlebt den Anschlag. Stauffenberg und seine Kameraden gehen aber weiterhin davon aus, dass der Führer das Zeitliche gesegnet hat. Sie verbreiten überall die Nachricht vom Tod des Diktators, während dieser ohne Möglichkeit zur Kommunikation in seinem Führerhauptquartier, der Wolfsschlucht, festsitzt. Ein Wettlauf gegen die Zeit beginnt...

MediaInfo:

General
Unique ID : 200058341108954482432042817290420171577 (0x9681D5C1070F86D486C730D805BD3339)
Complete name : Valkyrie.2008.1080p.BluRay.DTS.DL.x264-HDC.mkv
Format : Matroska
Format version : Version 2
File size : 12.5 GiB
Duration : 2h 0mn
Overall bit rate mode : Variable
Overall bit rate : 14.9 Mbps
Movie name : Valkyrie 2008 - HDC
Encoded date : UTC 2009-07-20 21:59:42
Writing application : mkvmerge v2.9.0 ('Moanin'') built on May 22 2009 17:46:31
Writing library : libebml v0.7.7 + libmatroska v0.8.1

Video
ID : 1
Format : AVC
Format/Info : Advanced Video Codec
Format profile : [email protected]
Format settings, CABAC : Yes
Format settings, ReFrames : 4 frames
Codec ID : V_MPEG4/ISO/AVC
Duration : 2h 0mn
Bit rate : 12.5 Mbps
Width : 1 920 pixels
Height : 1 036 pixels
Display aspect ratio : 1.85:1
Frame rate mode : Constant
Frame rate : 23.976 fps
Color space : YUV
Chroma subsampling : 4:2:0
Bit depth : 8 bits
Scan type : Progressive
Bits/(Pixel*Frame) : 0.261
Stream size : 10.2 GiB (81%)
Writing library : x264 core 67 r1173M f6d3166
Encoding settings : cabac=1 / ref=4 / deblock=1:-3:-4 / analyse=0x3:0x113 / me=esa / subme=9 / psy_rd=1.3:0.0 / mixed_ref=1 / me_range=24 / chroma_me=1 / trellis=2 / 8x8dct=1 / cqm=0 / deadzone=21,11 / chroma_qp_offset=-2 / threads=12 / nr=0 / decimate=0 / mbaff=0 / bframes=6 / b_pyramid=1 / b_adapt=2 / b_bias=0 / direct=3 / wpredb=1 / keyint=250 / keyint_min=25 / scenecut=40 / rc=2pass / bitrate=12464 / ratetol=1.0 / qcomp=0.70 / qpmin=10 / qpmax=51 / qpstep=4 / cplxblur=20.0 / qblur=0.5 / vbv_maxrate=50000 / vbv_bufsize=50000 / ip_ratio=1.30 / pb_ratio=1.20 / aq=1:0.80
Language : English
Default : Yes
Forced : No

Audio #1
ID : 2
Format : DTS
Format/Info : Digital Theater Systems
Mode : 16
Format settings, Endianness : Big
Codec ID : A_DTS
Duration : 2h 0mn
Bit rate mode : Constant
Bit rate : 768 Kbps
Channel(s) : 6 channels
Channel positions : Front: L C R, Side: L R, LFE
Sampling rate : 48.0 KHz
Bit depth : 24 bits
Compression mode : Lossy
Stream size : 661 MiB (5%)
Title : German DTS 5.1 @ 768 kbps
Language : German
Default : Yes
Forced : No

Audio #2
ID : 3
Format : DTS
Format/Info : Digital Theater Systems
Mode : 16
Format settings, Endianness : Big
Codec ID : A_DTS
Duration : 2h 0mn
Bit rate mode : Constant
Bit rate : 1 509 Kbps
Channel(s) : 6 channels
Channel positions : Front: L C R, Side: L R, LFE
Sampling rate : 48.0 KHz
Bit depth : 24 bits
Compression mode : Lossy
Stream size : 1.27 GiB (10%)
Title : English DTS 5.1 @ 1.536 kbps (core of DTS-MA)
Language : English
Default : No
Forced : No

Audio #3
ID : 4
Format : Vorbis
Format settings, Floor : 1
Codec ID : A_VORBIS
Duration : 2h 0mn
Bit rate mode : Variable
Bit rate : 96.0 Kbps
Channel(s) : 2 channels
Sampling rate : 48.0 KHz
Compression mode : Lossy
Stream size : 82.6 MiB (1%)
Title : English Commentary I OGG 2.0 @ 96 kbps
Writing library : aoTuV b5c (UTC 2008-12-15)
Language : English
Default : No
Forced : No

Audio #4
ID : 5
Format : Vorbis
Format settings, Floor : 1
Codec ID : A_VORBIS
Duration : 2h 0mn
Bit rate mode : Variable
Bit rate : 96.0 Kbps
Channel(s) : 2 channels
Sampling rate : 48.0 KHz
Compression mode : Lossy
Stream size : 82.6 MiB (1%)
Title : English Commentary II OGG 2.0 @ 96 kbps
Writing library : aoTuV b5c (UTC 2008-12-15)
Language : English
Default : No
Forced : No

Text #1
ID : 6
Format : UTF-8
Codec ID : S_TEXT/UTF8
Codec ID/Info : UTF-8 Plain Text
Title : German forced
Language : German
Default : Yes
Forced : Yes

Text #2
ID : 7
Format : UTF-8
Codec ID : S_TEXT/UTF8
Codec ID/Info : UTF-8 Plain Text
Title : English forced
Language : English
Default : No
Forced : No

Text #3
ID : 8
Format : UTF-8
Codec ID : S_TEXT/UTF8
Codec ID/Info : UTF-8 Plain Text
Title : German
Language : German
Default : No
Forced : No

Text #4
ID : 9
Format : UTF-8
Codec ID : S_TEXT/UTF8
Codec ID/Info : UTF-8 Plain Text
Title : English
Language : English
Default : No
Forced : No

Menu
00:00:00.000 : :00:00:00.000
00:03:16.405 : :00:03:16.405
00:06:21.715 : :00:06:21.715
00:11:05.498 : :00:11:05.498
00:14:55.978 : :00:14:55.978
00:17:48.901 : :00:17:48.901
00:20:43.909 : :00:20:43.909
00:22:58.460 : :00:22:58.460
00:26:04.021 : :00:26:04.021
00:29:52.624 : :00:29:52.624
00:32:15.851 : :00:32:15.851
00:34:21.142 : :00:34:21.142
00:36:35.193 : :00:36:35.193
00:42:32.341 : :00:42:32.341
00:46:07.723 : :00:46:07.723
00:48:07.134 : :00:48:07.134
00:51:17.449 : :00:51:17.449
00:55:05.969 : :00:55:05.969
00:58:26.878 : :00:58:26.878
00:59:35.155 : :00:59:35.155
01:02:06.264 : :01:02:06.264
01:08:22.890 : :01:08:22.890
01:11:03.718 : :01:11:03.718
01:16:05.019 : :01:16:05.019
01:20:29.742 : :01:20:29.742
01:23:05.397 : :01:23:05.397
01:27:23.113 : :01:27:23.113
01:30:22.959 : :01:30:22.959
01:34:41.551 : :01:34:41.551
01:37:41.272 : :01:37:41.272
01:43:58.482 : :01:43:58.482
01:50:11.688 : :01:50:11.688



NFO:

HHHHHHHHH HHHHHHHHHDDDDDDDDDDDDD CCCCCCCCCCCCC
H:::::::H H:::::::HD::::::::::::DDD CCC::::::::::::C
H:::::::H H:::::::HD:::::::::::::::DD CC:::::::::::::::C
HH::::::H H::::::HHDDD:::::DDDDD:::::D C:::::CCCCCCCC::::C
H:::::H H:::::H D:::::D D:::::D C:::::C CCCCCC
H:::::H H:::::H D:::::D D:::::DC:::::C
H::::::HHHHH::::::H D:::::D D:::::DC:::::C
H:::::::::::::::::H D:::::D D:::::DC:::::C
H:::::::::::::::::H D:::::D D:::::DC:::::C
H::::::HHHHH::::::H D:::::D D:::::DC:::::C
H:::::H H:::::H D:::::D D:::::DC:::::C
H:::::H H:::::H D:::::D D:::::D C:::::C CCCCCC
HH::::::H H::::::HHDDD:::::DDDDD:::::D C:::::CCCCCCCC::::C
H:::::::H H:::::::HD:::::::::::::::DD CC:::::::::::::::C
H:::::::H H:::::::HD::::::::::::DDD CCC::::::::::::C
HHHHHHHHH HHHHHHHHHDDDDDDDDDDDDD CCCCCCCCCCCCC

--- What else ---
------------------------------------------------------------------


Proudly presents

Valkyrie.2008.1080p.BluRay.DTS.DL.x264-HDC

AKA: Operation Walküre Das Stauffenberg Attentat


Genre.
Drama | History | Thriller | War


Tagline.
Many saw evil. They dared to stop it.


Plot.
Based on actual events, a plot to assassinate Hitler is unfurled during the height of WWII.


General Information
Release Name..: Valkyrie.2008.1080p.BluRay.DTS.DL.x264-HDC
Release Date..: 21.07.2009
Runtime.......: 02h:00m:21s
Size..........: 12.53 GB
Video Codec...: x264 [LVL4.1][DXVA]
Framerate.....: 23.976 fps
Bitrate.......: 12.463 kbps
Resolution....: 1920x1036 [AR 1.85:1]
Audio 1.......: German 5.1 DTS @ 768 kbps
Audio 2.......: English 5.1 DTS @ 1.536 kbps (core of DTS-MA)
Audio 3.......: English Commentary I 2.0 OGG @ 96 kbps
Audio 4.......: English Commentary II 2.0 OGG @ 96 kbps
Chapters......: YES like BluRay
Subtitles.....: German forced, English forced, German, English
Source........: BluRay AVC ~ 22.40 Mbps thx 2 Me
Encoder .....: iwok
IMDB Rating...: 7.3/10 [35.966 votes]
IMDB Link.....: [Link nur für registrierte und freigeschaltete Benutzer sichtbar]


x264 [info]: profile High, level 4.1
x264 [info]: slice I:2964 Avg QP:17.15 size:171508
x264 [info]: slice P:48303 Avg QP:18.32 size: 90419
x264 [info]: slice B:121863 Avg QP:19.77 size: 52302

encoded 173130 frames, 2.46 fps, 12463.36 kb/s


//Notes//

Playable on / Ps3 / TViX / Popcornhour / WD HD Player




Sprache: Dubs: German, English; Subs: German, English
Länge: 2h 0mn
Größe: 12.5 GiB (14x1000MiB Parts)
Gruppe: HDC
Quelle: BluRay


[Link nur für registrierte und freigeschaltete Benutzer sichtbar]

Enthaltene Dateien:

Valkyrie.2008.1080p.BluRay.DTS.DL.x264-HDC.mkv
Valkyrie.2008.1080p.BluRay.DTS.DL.x264-HDC.nfo

Download:

[Link nur für registrierte und freigeschaltete Benutzer sichtbar] Valkyrie.2008.1080p.BluRay.DTS.DL.x264-HDC ([Link nur für registrierte und freigeschaltete Benutzer sichtbar])

1fichier, MEGA, Share-Online, Uploaded