PDA

Archiv verlassen und diese Seite im Standarddesign anzeigen : Underworld Aufstand der Lykaner Underworld Rise of the Lycans 2009 1080p BluRay AC3 DL x264 - HDC



Zarroc
17.07.14, 07:55
Underworld.Rise.of.the.Lycans.2009.1080p.BluRay.AC 3.DL.x264-HDC
aka "Underworld - Aufstand der Lykaner"

[Link nur für registrierte und freigeschaltete Benutzer sichtbar]


Die Liebesbeziehung, die der junge Werwolf Lucian (Michael Sheen) mit der Vampirin Sonja (Rhona Mitra) eingeht, ist gefährlich. Sonja ist die Tochter von Lucians Sklavenhalter, dem Vampirkönig Viktor (Bill Nighy), und der hat etwas gegen die Vermischung von Blutlinien. Er wird zunehmend misstrauisch, die Enttarnung des geheimen Paares scheint nur eine Frage der Zeit. Doch dann gelingt Lucian die Flucht. Im weiten Waldland vor der Feste versammelt er seine wilden Brüder, bereit zur Schlacht gegen den Tyrannen. Einmal noch kehrt Lucian an den Ort seiner Knechtschaft zurück und bittet Sonja, ihm zu folgen. Es kommt zur Katastrophe...

MediaInfo:

General
Unique ID : 222736740134608561232784936735579155000 (0xA79189272D520DB68143433ABE99AA38)
Complete name : Underworld.Rise.of.the.Lycans.2009.1080p.BluRay.AC 3.DL.x264-HDC.mkv
Format : Matroska
Format version : Version 2
File size : 9.90 GiB
Duration : 1h 32mn
Overall bit rate mode : Variable
Overall bit rate : 15.3 Mbps
Movie name : Underworld Rise of the Lycans 2009 - HDC
Encoded date : UTC 2009-07-26 15:59:01
Writing application : mkvmerge v2.9.0 ('Moanin'') built on May 22 2009 17:46:31
Writing library : libebml v0.7.7 + libmatroska v0.8.1

Video
ID : 1
Format : AVC
Format/Info : Advanced Video Codec
Format profile : High@L4.1
Format settings, CABAC : Yes
Format settings, ReFrames : 5 frames
Codec ID : V_MPEG4/ISO/AVC
Duration : 1h 32mn
Bit rate : 14.0 Mbps
Width : 1 920 pixels
Height : 800 pixels
Display aspect ratio : 2.40:1
Frame rate mode : Constant
Frame rate : 23.976 fps
Color space : YUV
Chroma subsampling : 4:2:0
Bit depth : 8 bits
Scan type : Progressive
Bits/(Pixel*Frame) : 0.379
Stream size : 8.82 GiB (89%)
Writing library : x264 core 67 r1173M f6d3166
Encoding settings : cabac=1 / ref=5 / deblock=1:-3:-4 / analyse=0x3:0x113 / me=esa / subme=9 / psy_rd=1.3:0.0 / mixed_ref=1 / me_range=24 / chroma_me=1 / trellis=2 / 8x8dct=1 / cqm=0 / deadzone=21,11 / chroma_qp_offset=-2 / threads=12 / nr=0 / decimate=0 / mbaff=0 / bframes=6 / b_pyramid=1 / b_adapt=2 / b_bias=0 / direct=3 / wpredb=1 / keyint=250 / keyint_min=25 / scenecut=40 / rc=2pass / bitrate=13966 / ratetol=1.0 / qcomp=0.70 / qpmin=10 / qpmax=51 / qpstep=4 / cplxblur=20.0 / qblur=0.5 / vbv_maxrate=50000 / vbv_bufsize=50000 / ip_ratio=1.30 / pb_ratio=1.20 / aq=1:0.80
Language : English
Default : Yes
Forced : No

Audio #1
ID : 2
Format : AC-3
Format/Info : Audio Coding 3
Mode extension : CM (complete main)
Format settings, Endianness : Big
Codec ID : A_AC3
Duration : 1h 32mn
Bit rate mode : Constant
Bit rate : 640 Kbps
Channel count : 6 channels
Channel positions : Front: L C R, Side: L R, LFE
Sampling rate : 48.0 KHz
Bit depth : 16 bits
Compression mode : Lossy
Stream size : 423 MiB (4%)
Title : German AC3 5.1 @ 640 kbps
Language : German
Default : Yes
Forced : No

Audio #2
ID : 3
Format : AC-3
Format/Info : Audio Coding 3
Mode extension : CM (complete main)
Format settings, Endianness : Big
Codec ID : A_AC3
Duration : 1h 32mn
Bit rate mode : Constant
Bit rate : 640 Kbps
Channel count : 6 channels
Channel positions : Front: L C R, Side: L R, LFE
Sampling rate : 48.0 KHz
Bit depth : 16 bits
Compression mode : Lossy
Stream size : 423 MiB (4%)
Title : English AC3 5.1 @ 640 kbps (core of TrueHD)
Language : English
Default : No
Forced : No

Audio #3
ID : 4
Format : Vorbis
Format settings, Floor : 1
Codec ID : A_VORBIS
Duration : 1h 32mn
Bit rate mode : Variable
Bit rate : 96.0 Kbps
Channel count : 2 channels
Sampling rate : 48.0 KHz
Compression mode : Lossy
Stream size : 63.5 MiB (1%)
Title : English Commentary OGG 2.0 @ 96 kbps
Writing library : aoTuV b5c (UTC 2008-12-15)
Language : English
Default : No
Forced : No

Text #1
ID : 5
Format : UTF-8
Codec ID : S_TEXT/UTF8
Codec ID/Info : UTF-8 Plain Text
Language : German
Default : Yes
Forced : No

Text #2
ID : 6
Format : UTF-8
Codec ID : S_TEXT/UTF8
Codec ID/Info : UTF-8 Plain Text
Language : English
Default : No
Forced : No

Menu
00:00:00.000 : :00:00:00.000
00:00:50.550 : :00:00:50.550
00:06:13.123 : :00:06:13.123
00:06:19.879 : :00:06:19.879
00:11:42.785 : :00:11:42.785
00:16:03.462 : :00:16:03.462
00:16:44.629 : :00:16:44.629
00:19:38.010 : :00:19:38.010
00:22:37.565 : :00:22:37.565
00:24:33.055 : :00:24:33.055
00:27:36.446 : :00:27:36.446
00:28:44.890 : :00:28:44.890
00:30:28.493 : :00:30:28.493
00:31:28.678 : :00:31:28.678
00:35:42.265 : :00:35:42.265
00:36:33.149 : :00:36:33.149
00:39:04.926 : :00:39:04.926
00:40:17.415 : :00:40:17.415
00:41:41.499 : :00:41:41.499
00:46:25.825 : :00:46:25.825
00:46:28.869 : :00:46:28.869
00:50:44.166 : :00:50:44.166
00:50:54.593 : :00:50:54.593
00:52:28.979 : :00:52:28.979
00:55:08.222 : :00:55:08.222
00:56:09.491 : :00:56:09.491
01:00:39.302 : :01:00:39.302
01:00:46.184 : :01:00:46.184
01:04:21.066 : :01:04:21.066
01:07:13.279 : :01:07:13.279
01:11:15.438 : :01:11:15.438
01:13:29.322 : :01:13:29.322
01:16:18.908 : :01:16:18.908
01:16:38.844 : :01:16:38.844
01:18:03.888 : :01:18:03.888
01:22:33.157 : :01:22:33.157



NFO:

HHHHHHHHH HHHHHHHHHDDDDDDDDDDDDD CCCCCCCCCCCCC
H:::::::H H:::::::HD::::::::::::DDD CCC::::::::::::C
H:::::::H H:::::::HD:::::::::::::::DD CC:::::::::::::::C
HH::::::H H::::::HHDDD:::::DDDDD:::::D C:::::CCCCCCCC::::C
H:::::H H:::::H D:::::D D:::::D C:::::C CCCCCC
H:::::H H:::::H D:::::D D:::::DC:::::C
H::::::HHHHH::::::H D:::::D D:::::DC:::::C
H:::::::::::::::::H D:::::D D:::::DC:::::C
H:::::::::::::::::H D:::::D D:::::DC:::::C
H::::::HHHHH::::::H D:::::D D:::::DC:::::C
H:::::H H:::::H D:::::D D:::::DC:::::C
H:::::H H:::::H D:::::D D:::::D C:::::C CCCCCC
HH::::::H H::::::HHDDD:::::DDDDD:::::D C:::::CCCCCCCC::::C
H:::::::H H:::::::HD:::::::::::::::DD CC:::::::::::::::C
H:::::::H H:::::::HD::::::::::::DDD CCC::::::::::::C
HHHHHHHHH HHHHHHHHHDDDDDDDDDDDDD CCCCCCCCCCCCC

--- What else ---
------------------------------------------------------------------


Proudly presents


Underworld.Rise.of.the.Lycans.2009.1080p.BluRay.AC 3.DL.x264-HDC


Genre.
Action | Fantasy | Horror | Thriller


Tagline.
An immortal battle for supremacy.


Plot.
An origins story centered on the centuries-old feud between the race of
aristocratic vampires and their onetime slaves, the Lycans.


General Information
Release Name..: Underworld.Rise.of.the.Lycans.2009.1080p.BluRay.AC 3.DL.x264-HDC
Release Date..: 28.07.2009
Runtime.......: 01h:32m:29s
Size..........: 9.90 GB
Video Codec...: x264 [LVL4.1][DXVA]
Framerate.....: 23.976 fps
Bitrate.......: 13.965 kbps
Resolution....: 1920x800 [AR 2.40:1]
Audio 1.......: German AC3 5.1 @ 640 kbps
Audio 2.......: English AC3 5.1 @ 640 kbps (core of TrueHD)
Audio 3.......: English Commentry OGG 2.0 @ 96 kbps
Chapters......: YES like BluRay
Subtitles.....: German, English
Source........: BluRay AVC ~ 23.05 Mbps thx 2 Me
Encoder .....: iwok
IMDB Rating...: 6.6/10 [18.217 votes]
IMDB Link.....: [Link nur für registrierte und freigeschaltete Benutzer sichtbar]

x264 [info]: profile High, level 4.1
x264 [info]: slice I:3693 Avg QP:18.62 size:172684
x264 [info]: slice P:41863 Avg QP:19.18 size: 88696
x264 [info]: slice B:87477 Avg QP:21.09 size: 60985

encoded 133033 frames, 2.36 fps, 13965.07 kb/s


//Notes//

Playable on / Ps3 / TViX / Popcornhour / WD HD Player








Sprache: Dubs: German, English; Subs: German, English
Länge: 1h 32mn
Größe: 9.90 GiB (11x1000MiB Parts)
Gruppe: HDC
Quelle: BluRay


[Link nur für registrierte und freigeschaltete Benutzer sichtbar]

Enthaltene Dateien:

Underworld.Rise.of.the.Lycans.2009.1080p.BluRay.AC 3.DL.x264-HDC.mkv
Underworld.Rise.of.the.Lycans.2009.1080p.BluRay.AC 3.DL.x264-HDC.nfo

Download:

[Link nur für registrierte und freigeschaltete Benutzer sichtbar] Underworld.Rise.of.the.Lycans.2009.1080p.BluRay.AC 3.DL.x264-HDC ([Link nur für registrierte und freigeschaltete Benutzer sichtbar])

1fichier, MEGA, Share-Online, Uploaded