PDA

Archiv verlassen und diese Seite im Standarddesign anzeigen : Underworld Evolution 2006 1080p BluRay DTS AC3 DL x264 - HDC



Zarroc
17.07.14, 08:53
Underworld.Evolution.2006.1080p.BluRay.DTS.AC3.DL. x264-HDC

[Link nur für registrierte und freigeschaltete Benutzer sichtbar]


Selene (Kate Beckinsale), die hübsche Vampirsoldatin, ist auf der Flucht. Ihre alten Feinde, die Lykaner (Werwölfe) verfolgen sie sowieso, hinzu kommen Anhänger des Vampiroberhaupts Viktor (Bill Nighty) - den sie getötet hat. Der Vampir-Werwolf-Mischling Michael (Scott Speedman) unterstützt sie als einziger. Leider kommt Michael mit seinen neuen Kräften besser zu recht als mit dem ihm bisher fremden Blutdurst, so dass Selene ihm die Regeln erstmal beibringen muss. Die einzige Chance, ihre Ehre wiederherzustellen, sieht sie in der Anrufung des neuen Vampirchefs Markus (Tony Curran), dem sie die Gründe für ihre Taten darlegen will. Was Selene nicht weiß: Auch Markus ist durch eine Unachtsamkeit in der Aufweckungszeremonie zum Hybriden geworden, der eigene Machtpläne in die Tat umsetzen will und die Ermordung ehemaliger Verbündeter als Bauernopfer bereitwillig eingeht...

MediaInfo:

General
Unique ID : 204130193143824168142504420304543154461 (0x99920B8F245C53549DB5096B3042011D)
Complete name : Underworld.Evolution.2006.1080p.BluRay.DTS.AC3.DL. x264-HDC.mkv
Format : Matroska
Format version : Version 2
File size : 9.82 GiB
Duration : 1h 46mn
Overall bit rate mode : Variable
Overall bit rate : 13.2 Mbps
Movie name : Underworld Evolution 2006 - HDC
Encoded date : UTC 2009-07-26 15:26:27
Writing application : mkvmerge v2.9.0 ('Moanin'') built on May 22 2009 17:46:31
Writing library : libebml v0.7.7 + libmatroska v0.8.1

Video
ID : 1
Format : AVC
Format/Info : Advanced Video Codec
Format profile : High@L4.1
Format settings, CABAC : Yes
Format settings, ReFrames : 5 frames
Codec ID : V_MPEG4/ISO/AVC
Duration : 1h 46mn
Bit rate : 11.0 Mbps
Width : 1 920 pixels
Height : 800 pixels
Display aspect ratio : 2.40:1
Frame rate mode : Constant
Frame rate : 23.976 fps
Color space : YUV
Chroma subsampling : 4:2:0
Bit depth : 8 bits
Scan type : Progressive
Bits/(Pixel*Frame) : 0.298
Stream size : 7.96 GiB (81%)
Writing library : x264 core 67 r1173M f6d3166
Encoding settings : cabac=1 / ref=5 / deblock=1:-3:-4 / analyse=0x3:0x113 / me=esa / subme=9 / psy_rd=1.3:0.0 / mixed_ref=1 / me_range=24 / chroma_me=1 / trellis=2 / 8x8dct=1 / cqm=0 / deadzone=21,11 / chroma_qp_offset=-2 / threads=12 / nr=0 / decimate=0 / mbaff=0 / bframes=6 / b_pyramid=1 / b_adapt=2 / b_bias=0 / direct=3 / wpredb=1 / keyint=250 / keyint_min=25 / scenecut=40 / rc=2pass / bitrate=10982 / ratetol=1.0 / qcomp=0.70 / qpmin=10 / qpmax=51 / qpstep=4 / cplxblur=20.0 / qblur=0.5 / vbv_maxrate=50000 / vbv_bufsize=50000 / ip_ratio=1.30 / pb_ratio=1.20 / aq=1:0.80
Language : English
Default : Yes
Forced : No

Audio #1
ID : 2
Format : DTS
Format/Info : Digital Theater Systems
Mode : 16
Format settings, Endianness : Big
Codec ID : A_DTS
Duration : 1h 46mn
Bit rate mode : Constant
Bit rate : 1 510 Kbps
Channel count : 6 channels
Channel positions : Front: L C R, Side: L R, LFE
Sampling rate : 48.0 KHz
Bit depth : 16 bits
Compression mode : Lossy
Stream size : 1.12 GiB (11%)
Title : German DTS 5.1 @ 1.536 kbps (from PCM)
Language : German
Default : Yes
Forced : No

Audio #2
ID : 3
Format : AC-3
Format/Info : Audio Coding 3
Mode extension : CM (complete main)
Format settings, Endianness : Big
Codec ID : A_AC3
Duration : 1h 46mn
Bit rate mode : Constant
Bit rate : 640 Kbps
Channel count : 6 channels
Channel positions : Front: L C R, Side: L R, LFE
Sampling rate : 48.0 KHz
Bit depth : 16 bits
Compression mode : Lossy
Stream size : 487 MiB (5%)
Title : English AC3 5.1 640 kbps
Language : English
Default : No
Forced : No

Audio #3
ID : 4
Format : Vorbis
Format settings, Floor : 1
Codec ID : A_VORBIS
Duration : 1h 46mn
Bit rate mode : Variable
Bit rate : 96.0 Kbps
Channel count : 2 channels
Sampling rate : 48.0 KHz
Compression mode : Lossy
Stream size : 73.1 MiB (1%)
Title : English Commentry OGG 2.0 @ 96 kbps
Writing library : aoTuV b5c (UTC 2008-12-15)
Language : English
Default : No
Forced : No

Text #1
ID : 5
Format : UTF-8
Codec ID : S_TEXT/UTF8
Codec ID/Info : UTF-8 Plain Text
Title : German
Language : German
Default : Yes
Forced : No

Text #2
ID : 6
Format : UTF-8
Codec ID : S_TEXT/UTF8
Codec ID/Info : UTF-8 Plain Text
Title : English
Language : English
Default : No
Forced : No

Menu
00:00:00.000 : :00:00:00.000
00:09:46.002 : :00:09:46.002
00:12:20.782 : :00:12:20.782
00:17:17.787 : :00:17:17.787
00:23:11.974 : :00:23:11.974
00:33:47.901 : :00:33:47.901
00:38:57.293 : :00:38:57.293
00:43:31.651 : :00:43:31.651
00:49:11.782 : :00:49:11.782
00:56:43.817 : :00:56:43.817
01:03:08.785 : :01:03:08.785
01:10:31.936 : :01:10:31.936
01:17:17.007 : :01:17:17.007
01:21:26.256 : :01:21:26.256
01:28:43.276 : :01:28:43.276
01:32:11.067 : :01:32:11.067



NFO:

HHHHHHHHH HHHHHHHHHDDDDDDDDDDDDD CCCCCCCCCCCCC
H:::::::H H:::::::HD::::::::::::DDD CCC::::::::::::C
H:::::::H H:::::::HD:::::::::::::::DD CC:::::::::::::::C
HH::::::H H::::::HHDDD:::::DDDDD:::::D C:::::CCCCCCCC::::C
H:::::H H:::::H D:::::D D:::::D C:::::C CCCCCC
H:::::H H:::::H D:::::D D:::::DC:::::C
H::::::HHHHH::::::H D:::::D D:::::DC:::::C
H:::::::::::::::::H D:::::D D:::::DC:::::C
H:::::::::::::::::H D:::::D D:::::DC:::::C
H::::::HHHHH::::::H D:::::D D:::::DC:::::C
H:::::H H:::::H D:::::D D:::::DC:::::C
H:::::H H:::::H D:::::D D:::::D C:::::C CCCCCC
HH::::::H H::::::HHDDD:::::DDDDD:::::D C:::::CCCCCCCC::::C
H:::::::H H:::::::HD:::::::::::::::DD CC:::::::::::::::C
H:::::::H H:::::::HD::::::::::::DDD CCC::::::::::::C
HHHHHHHHH HHHHHHHHHDDDDDDDDDDDDD CCCCCCCCCCCCC

--- What else ---
------------------------------------------------------------------


Proudly presents


Underworld.Evolution.2006.1080p.BluRay.DTS.AC3.DL. x264-HDC


Genre.
Action | Fantasy | Horror | Thriller


Tagline.
An immortal battle for supremacy.


Plot.
As the adventure continues, the saga of war between vampires and werewolves.
Selene, the vampire "death...


General Information
Release Name..: Underworld.Evolution.2006.1080p.BluRay.DTS.AC3.DL. x264-HDC
Release Date..: 28.07.2009
Runtime.......: 01h:46m:24s
Size..........: 9.82 GB
Video Codec...: x264 [LVL4.1][DXVA]
Framerate.....: 23.976 fps
Bitrate.......: 10.981 kbps
Resolution....: 1920x800 [AR 2.40:1]
Audio 1.......: German DTS 5.1 @ 1.536 kbps (from PCM)
Audio 2.......: English AC3 5.1 @ 640 kbps
Audio 3.......: English Commentry OGG 2.0 @ 96 kbps
Chapters......: YES like BluRay
Subtitles.....: German, English
Source........: BluRay MPG2 ~ 16.04 Mbps thx 2 Me
Encoder .....: iwok
IMDB Rating...: 6.6/10 [42.008 votes]
IMDB Link.....: [Link nur für registrierte und freigeschaltete Benutzer sichtbar]

x264 [info]: profile High, level 4.1
x264 [info]: slice I:3101 Avg QP:15.58 size:134537
x264 [info]: slice P:54141 Avg QP:16.74 size: 78302
x264 [info]: slice B:95829 Avg QP:18.38 size: 42854

encoded 153071 frames, 3.51 fps, 10981.03 kb/s


//Notes//

Playable on / Ps3 / TViX / Popcornhour / WD HD Player








Sprache: Dubs: German, English; Subs: German, English
Länge: 1h 46mn
Größe: 9.82 GiB (11x1000MiB Parts)
Gruppe: HDC
Quelle: BluRay


[Link nur für registrierte und freigeschaltete Benutzer sichtbar]

Enthaltene Dateien:

Underworld.Evolution.2006.1080p.BluRay.DTS.AC3.DL. x264-HDC.mkv
Underworld.Evolution.2006.1080p.BluRay.DTS.AC3.DL. x264-HDC.nfo

Download:

[Link nur für registrierte und freigeschaltete Benutzer sichtbar] Underworld.Evolution.2006.1080p.BluRay.DTS.AC3.DL. x264-HDC ([Link nur für registrierte und freigeschaltete Benutzer sichtbar])

1fichier, MEGA, Share-Online, Uploaded