PDA

Archiv verlassen und diese Seite im Standarddesign anzeigen : Transformers Der Kampf um Cybertron Transformers The.Movie 1986 1080p BluRay AC3D DL x264 - HDC



Zarroc
17.07.14, 07:51
Transformers.The.Movie.1986.1080p.BluRay.AC3D.DL.x 264-HDC
aka "Transformers - Der Kampf um Cybertron"

[Link nur für registrierte und freigeschaltete Benutzer sichtbar]


Im Jahr 2005 geht die Schlacht zwischen Decepticons und Autobots weiter: Nachdem Megatron (deutsche Stimme: Manfred Erdmann) und seine Decepticons den Heimatplaneten der Transformers erobert haben, haben Optimus Prime (Thomas Rau) und die verbliebenen Autobots auf der Erde eine Stadt names Autobot City errichtet, von wo aus sie die Rückeroberung ihrer Heimatwelt planen. Spike Witwicky (Crock Krumbiegel), ein Mensch der den Autobots bei ihrem Kampf zur Seite steht, ist mittlerweile erwachsen geworden und hat einen Sohn namens Daniel (Marc Stachel). Bei einem Großangriff der Decepticons auf Autobot City erleiden beide Seiten schwere Verluste und Optimus Prime erliegt schließlich seinen schweren Verletzungen. Ultra Magnus tritt seine Nachfolge an, doch inzwischen gibt es eine weitere Bedrohung: Der Planetenzerstörer Unicron (Werner Abrolat) hat es ebenfalls auf ihre Heimat abgesehen...

MediaInfo:

General
Unique ID : 207951712881966039787154488180379843562 (0x9C720B077614013B8E371B7EEA557BEA)
Complete name : Transformers.The.Movie.1986.1080p.BluRay.AC3D.DL.x 264-HDC.mkv
Format : Matroska
Format version : Version 2
File size : 7.54 GiB
Duration : 1h 25mn
Overall bit rate : 12.7 Mbps
Encoded date : UTC 2010-08-28 14:36:04
Writing application : mkvmerge v4.0.0 ('The Stars were mine') gebaut am Jun 6 2010 16:18:42
Writing library : libebml v1.0.0 + libmatroska v1.0.0

Video
ID : 1
Format : AVC
Format/Info : Advanced Video Codec
Format profile : High@L4.1
Format settings, CABAC : Yes
Format settings, ReFrames : 4 frames
Codec ID : V_MPEG4/ISO/AVC
Duration : 1h 25mn
Bit rate : 11.6 Mbps
Width : 1 920 pixels
Height : 1 080 pixels
Display aspect ratio : 16:9
Frame rate mode : Constant
Frame rate : 23.976 fps
Color space : YUV
Chroma subsampling : 4:2:0
Bit depth : 8 bits
Scan type : Progressive
Bits/(Pixel*Frame) : 0.234
Stream size : 6.75 GiB (89%)
Title : 12 Mbps AVC MPEG-4
Writing library : x264 core 104 r1683+3 221daa9
Encoding settings : cabac=1 / ref=4 / deblock=1:-3:-3 / analyse=0x3:0x113 / me=umh / subme=9 / psy=1 / fade_compensate=0.00 / psy_rd=1.00:0.00 / mixed_ref=1 / me_range=24 / chroma_me=1 / trellis=2 / 8x8dct=1 / cqm=0 / deadzone=21,11 / fast_pskip=1 / chroma_qp_offset=-2 / threads=6 / sliced_threads=0 / nr=0 / decimate=1 / interlaced=0 / constrained_intra=0 / fgo=0 / bframes=5 / b_pyramid=2 / b_adapt=2 / b_bias=0 / direct=3 / weightb=1 / open_gop=0 / weightp=2 / keyint=250 / keyint_min=23 / scenecut=40 / intra_refresh=0 / rc_lookahead=80 / rc=2pass / mbtree=1 / bitrate=11615 / ratetol=1.0 / qcomp=0.80 / qpmin=10 / qpmax=51 / qpstep=4 / cplxblur=20.0 / qblur=0.5 / ip_ratio=1.40 / aq=1:0.80
Language : German
Default : No
Forced : No

Audio #1
ID : 2
Format : AC-3
Format/Info : Audio Coding 3
Mode extension : CM (complete main)
Format settings, Endianness : Big
Codec ID : A_AC3
Duration : 1h 25mn
Bit rate mode : Constant
Bit rate : 448 Kbps
Channel count : 6 channels
Channel positions : Front: L C R, Side: L R, LFE
Sampling rate : 48.0 KHz
Bit depth : 16 bits
Compression mode : Lossy
Stream size : 272 MiB (4%)
Title : 5.1 AC3 @ 448 kbps
Language : German
Default : Yes
Forced : Yes

Audio #2
ID : 3
Format : AC-3
Format/Info : Audio Coding 3
Mode extension : CM (complete main)
Format settings, Endianness : Big
Codec ID : A_AC3
Duration : 1h 25mn
Bit rate mode : Constant
Bit rate : 640 Kbps
Channel count : 6 channels
Channel positions : Front: L C R, Side: L R, LFE
Sampling rate : 48.0 KHz
Bit depth : 16 bits
Compression mode : Lossy
Stream size : 389 MiB (5%)
Title : 5.1 AC3 @ 640 kbps
Language : English
Default : No
Forced : No

Menu
00:00:00.000 : en:00:00:00.000
00:02:45.582 : en:00:02:45.582
00:05:20.987 : en:00:05:20.987
00:08:36.725 : en:00:08:36.725
00:11:59.636 : en:00:11:59.636
00:19:26.207 : en:00:19:26.207
00:23:45.758 : en:00:23:45.758
00:26:27.753 : en:00:26:27.753
00:33:56.701 : en:00:33:56.701
00:44:21.284 : en:00:44:21.284
00:49:16.787 : en:00:49:16.787
00:54:49.119 : en:00:54:49.119
01:01:44.451 : en:01:01:44.451
01:02:54.813 : en:01:02:54.813
01:07:16.658 : en:01:07:16.658
01:16:08.564 : en:01:16:08.564
01:19:38.816 : en:01:19:38.816



NFO:

HHHHHHHHH HHHHHHHHHDDDDDDDDDDDDD CCCCCCCCCCCCC
H:::::::H H:::::::HD::::::::::::DDD CCC::::::::::::C
H:::::::H H:::::::HD:::::::::::::::DD CC:::::::::::::::C
HH::::::H H::::::HHDDD:::::DDDDD:::::D C:::::CCCCCCCC::::C
H:::::H H:::::H D:::::D D:::::D C:::::C CCCCCC
H:::::H H:::::H D:::::D D:::::DC:::::C
H::::::HHHHH::::::H D:::::D D:::::DC:::::C
H:::::::::::::::::H D:::::D D:::::DC:::::C
H:::::::::::::::::H D:::::D D:::::DC:::::C
H::::::HHHHH::::::H D:::::D D:::::DC:::::C
H:::::H H:::::H D:::::D D:::::DC:::::C
H:::::H H:::::H D:::::D D:::::D C:::::C CCCCCC
HH::::::H H::::::HHDDD:::::DDDDD:::::D C:::::CCCCCCCC::::C
H:::::::H H:::::::HD:::::::::::::::DD CC:::::::::::::::C
H:::::::H H:::::::HD::::::::::::DDD CCC::::::::::::C
HHHHHHHHH HHHHHHHHHDDDDDDDDDDDDD CCCCCCCCCCCCC

--- What else ---
------------------------------------------------------------------


Proudly presents


Transformers.The.Movie.1986.1080p.BluRay.AC3D.DL.x 264-HDC


Director.
Nelson Shin


Genre.
Animation | Action | Adventure | Family | Sci-Fi


Tagline.
Beyond good. Beyond evil. Beyond your wildest imagination


Plot.
The Autobots must stop a colossal planet consuming robot
who is after the Autobot Matrix of Leadership.


General Information
RUNTIME................: 01h:25m:00s
VIDEO.CODEC............: x264 [LVL4.1][DXVA]
FRAMERATE..............: 23.976 fps
SIZE...................: 7.54 GB
BITRATE................: 11614 kbps [Source = 24752 kbps]
RESOLUTION.............: 1920x1080 [AR 1.78:1]
AUDIO.1................: German 5.1 AC3 @ 448 kbps [Untouched Dubbed]
AUDIO.2................: English 5.1 AC3 @ 640 kbps
SUBTITLES..............: No
CHAPTERS...............: Yes
SOURCE.................: The Transformers: The Movie 1986 Blu-ray 1080p MPEG-2 DD 5.1-CRONUS
IMDB.RATING............: 7.2/10 19,053 votes
IMDB.LINK..............: [Link nur für registrierte und freigeschaltete Benutzer sichtbar]


x264 [info]: profile High, level 4.1

x264 [info]: frame I:1282 Avg QP:21.30 size:232667
x264 [info]: frame P:33971 Avg QP:24.11 size: 98760
x264 [info]: frame B:87046 Avg QP:24.98 size: 43110
x264 [info]: consecutive B-frames: 3.3% 6.6% 31.4% 12.2% 7.0% 39.5%
x264 [info]: SSIM Mean Y:0.9600748 (13.988db)

encoded 122299 frames, 2.65 fps, 11614.94 kb/s





Sprache: Dubs: German, English; Subs: keine
Länge: 1h 25mn
Größe: 7.54 GiB (8x1000MiB Parts)
Gruppe: HDC
Quelle: BluRay


[Link nur für registrierte und freigeschaltete Benutzer sichtbar]

Enthaltene Dateien:

Transformers.The.Movie.1986.1080p.BluRay.AC3D.DL.x 264-HDC.mkv
Transformers.The.Movie.1986.1080p.BluRay.AC3D.DL.x 264-HDC.nfo

Download:

[Link nur für registrierte und freigeschaltete Benutzer sichtbar] Transformers.The.Movie.1986.1080p.BluRay.AC3D.DL.x 264-HDC ([Link nur für registrierte und freigeschaltete Benutzer sichtbar])

1fichier, MEGA, Share-Online, Uploaded