PDA

Archiv verlassen und diese Seite im Standarddesign anzeigen : Tokarev 2014 1080p BluRay DTS DL x264 - HDC



Zarroc
17.07.14, 07:42
Tokarev.2014.1080p.BluRay.DTS.DL.x264-HDC
aka "Tokarev - Die Vergangenheit stirbt niemals" aka "Rage"

[Link nur für registrierte und freigeschaltete Benutzer sichtbar]


Paul Maguires (Nicolas Cage) Leben ist in Ordnung: Er hat eine tolle Beziehung zu seiner Tochter Caitlin (Aubrey Peeples) und konnte seine dunkle Vergangenheit abschütteln. Ein Abend, an dem er nicht zu Hause ist ändert jedoch alles. Caitlin verbringt diesen mit zwei Freunden, als plötzlich russische Gangster in das Haus eindringen, die Jugendlichen zusammenschlagen und Caitlin entführen, nur um sie später brutal durch einen Kopfschuss einer russischen Tokarev TT33 zu ermorden. Paul ist außer sich vor Wut, vor allem da ihm klar wird, dass seine von kriminellen Machenschaften geprägte Vergangenheit offenbar den Anlass zum Mord an seiner Tochter gab. Irgendjemand wollte ihm etwas heimzahlen. Als ein früherer Gegner (Peter Stormare) ihn auf Caitlins Beerdigung auffordert, alles auf sich beruhen zu lassen, ist Paul bereits dabei seine alten Kontakte zu reaktivieren und blutige Rache an den Mördern zu planen.

MediaInfo:

General
Unique ID : 196349537950532179236349331002568134204 (0x93B78BA3F5492984B649B6C4EB2ACE3C)
Complete name : Tokarev.2014.1080p.BluRay.DTS.DL.x264-HDC.mkv
Format : Matroska
Format version : Version 4 / Version 2
File size : 10.8 GiB
Duration : 1h 38mn
Overall bit rate : 15.7 Mbps
Encoded date : UTC 2014-05-15 18:27:00
Writing application : mkvmerge v6.9.1 ('Blue Panther') 64bit built on Apr 18 2014 18:23:38
Writing library : libebml v1.3.0 + libmatroska v1.4.1

Video
ID : 1
Format : AVC
Format/Info : Advanced Video Codec
Format profile : High@L4.1
Format settings, CABAC : Yes
Format settings, ReFrames : 4 frames
Codec ID : V_MPEG4/ISO/AVC
Duration : 1h 38mn
Bit rate : 11.9 Mbps
Width : 1 920 pixels
Height : 816 pixels
Display aspect ratio : 2.35:1
Frame rate mode : Constant
Frame rate : 23.976 fps
Color space : YUV
Chroma subsampling : 4:2:0
Bit depth : 8 bits
Scan type : Progressive
Bits/(Pixel*Frame) : 0.316
Stream size : 7.95 GiB (74%)
Writing library : x264 core 142 r2431 ac76440
Encoding settings : cabac=1 / ref=4 / deblock=1:-3:-3 / analyse=0x3:0x113 / me=umh / subme=9 / psy=1 / psy_rd=1.20:0.00 / mixed_ref=1 / me_range=16 / chroma_me=1 / trellis=2 / 8x8dct=1 / cqm=0 / deadzone=21,11 / fast_pskip=0 / chroma_qp_offset=-2 / threads=8 / lookahead_threads=1 / sliced_threads=0 / nr=0 / decimate=1 / interlaced=0 / bluray_compat=0 / constrained_intra=0 / bframes=5 / b_pyramid=2 / b_adapt=2 / b_bias=0 / direct=3 / weightb=1 / open_gop=0 / weightp=2 / keyint=250 / keyint_min=23 / scenecut=40 / intra_refresh=0 / rc_lookahead=88 / rc=2pass / mbtree=1 / bitrate=11862 / ratetol=1.0 / qcomp=0.80 / qpmin=0 / qpmax=69 / qpstep=4 / cplxblur=20.0 / qblur=0.5 / ip_ratio=1.40 / aq=1:1.00
Default : Yes
Forced : No

Audio #1
ID : 2
Format : DTS
Format/Info : Digital Theater Systems
Mode : 16
Format settings, Endianness : Big
Codec ID : A_DTS
Duration : 1h 38mn
Bit rate mode : Constant
Bit rate : 1 509 Kbps
Channel(s) : 6 channels
Channel positions : Front: L C R, Side: L R, LFE
Sampling rate : 48.0 KHz
Bit depth : 24 bits
Compression mode : Lossy
Stream size : 1.04 GiB (10%)
Title : 5.1 DTS @ 1509kbps
Language : German
Default : Yes
Forced : No

Audio #2
ID : 3
Format : DTS
Format/Info : Digital Theater Systems
Mode : 16
Format settings, Endianness : Big
Codec ID : A_DTS
Duration : 1h 38mn
Bit rate mode : Constant
Bit rate : 1 509 Kbps
Channel(s) : 6 channels
Channel positions : Front: L C R, Side: L R, LFE
Sampling rate : 48.0 KHz
Bit depth : 24 bits
Compression mode : Lossy
Stream size : 1.04 GiB (10%)
Title : 5.1 DTS @ 1509kbps
Language : English
Default : No
Forced : No

Audio #3
ID : 4
Format : DTS
Format/Info : Digital Theater Systems
Mode : 16
Format settings, Endianness : Big
Codec ID : A_DTS
Duration : 1h 38mn
Bit rate mode : Constant
Bit rate : 768 Kbps
Channel(s) : 2 channels
Channel positions : Front: L R
Sampling rate : 48.0 KHz
Bit depth : 24 bits
Compression mode : Lossy
Stream size : 541 MiB (5%)
Title : Commentary 2.0 DTS @ 768kbps
Language : English
Default : No
Forced : No

Text #1
ID : 5
Format : PGS
Codec ID : S_HDMV/PGS
Codec ID/Info : The same subtitle format used on BDs/HD-DVDs
Title : PGS
Language : German
Default : No
Forced : No

Text #2
ID : 6
Format : VobSub
Codec ID : S_VOBSUB
Codec ID/Info : The same subtitle format used on DVDs
Title : VOB
Language : German
Default : No
Forced : No

Text #3
ID : 7
Format : UTF-8
Codec ID : S_TEXT/UTF8
Codec ID/Info : UTF-8 Plain Text
Title : SRT
Language : English
Default : No
Forced : No

Text #4
ID : 8
Format : PGS
Codec ID : S_HDMV/PGS
Codec ID/Info : The same subtitle format used on BDs/HD-DVDs
Title : Forced PGS
Language : German
Default : Yes
Forced : Yes

Text #5
ID : 9
Format : VobSub
Codec ID : S_VOBSUB
Codec ID/Info : The same subtitle format used on DVDs
Title : Forced VOB
Language : German
Default : No
Forced : No

Menu
00:00:00.000 : en:00:00:00.000
00:08:35.598 : en:00:08:35.598
00:16:44.295 : en:00:16:44.295
00:24:59.998 : en:00:24:59.998
00:37:21.448 : en:00:37:21.448
00:42:16.200 : en:00:42:16.200
00:48:20.356 : en:00:48:20.356
00:55:27.032 : en:00:55:27.032
01:07:48.731 : en:01:07:48.731
01:13:20.146 : en:01:13:20.146
01:19:58.711 : en:01:19:58.711
01:27:23.071 : en:01:27:23.071



NFO:

HHHHHHHHH HHHHHHHHHDDDDDDDDDDDDD CCCCCCCCCCCCC
H:::::::H H:::::::HD::::::::::::DDD CCC::::::::::::C
H:::::::H H:::::::HD:::::::::::::::DD CC:::::::::::::::C
HH::::::H H::::::HHDDD:::::DDDDD:::::D C:::::CCCCCCCC::::C
H:::::H H:::::H D:::::D D:::::D C:::::C CCCCCC
H:::::H H:::::H D:::::D D:::::DC:::::C
H::::::HHHHH::::::H D:::::D D:::::DC:::::C
H:::::::::::::::::H D:::::D D:::::DC:::::C
H:::::::::::::::::H D:::::D D:::::DC:::::C
H::::::HHHHH::::::H D:::::D D:::::DC:::::C
H:::::H H:::::H D:::::D D:::::DC:::::C
H:::::H H:::::H D:::::D D:::::D C:::::C CCCCCC
HH::::::H H::::::HHDDD:::::DDDDD:::::D C:::::CCCCCCCC::::C
H:::::::H H:::::::HD:::::::::::::::DD CC:::::::::::::::C
H:::::::H H:::::::HD::::::::::::DDD CCC::::::::::::C
HHHHHHHHH HHHHHHHHHDDDDDDDDDDDDD CCCCCCCCCCCCC

--- What else ---
------------------------------------------------------------------


Proudly presents


Tokarev.2014.1080p.BluRay.DTS.DL.x264-HDC


Genre.
Action | Crime | Thriller


Tagline.
-


Plot.
When the Russian mob kidnaps the daughter of a reformed criminal,
he rounds up his old crew and seeks his own brand of justice.


General Information.
Release.Name.........: Tokarev.2014.1080p.BluRay.DTS.DL.x264-HDC
Release.Date ........: 16.05.2014
RUNTIME..............: 01h:38m:28s
SIZE.................: 10.7 GB
VIDEO CODEC..........: x264
FRAMERATE............: 23.976 fps
BITRATE..............: 11862 kbps [Source=23997 kbps]
RESOLUTION...........: 1920x816 [AR 2.35:1]
AUDIO.1..............: German 5.1 DTS @ 1509 kbps
AUDIO.2..............: English 5.1 DTS @ 1509 kbps
COMMENTARY.AUDIO.....: English 2.0 DTS @ 768 kbps
SUBTITLES............: Ger, Eng
CHAPTERS.............: Yes, like BluRay
SOURCE.1.............: Tokarev.2014.DUAL.COMPLETE.BLURAY-SharpHD (thx)
SOURCE.2.............: inet, for SRT sub
IMDB.RATING..........: 5,0/10 from 4 009 votes
IMDB.LINK............: [Link nur für registrierte und freigeschaltete Benutzer sichtbar]


x264 [info]: frame I:1243 Avg QP:13.27 size:211805
x264 [info]: frame P:32370 Avg QP:16.04 size: 88517
x264 [info]: frame B:108036 Avg QP:16.95 size: 52120
encoded 141649 frames, 5.37 fps, 11861.27 kb/s

Sprache: Dubs: German, English; Subs: German, English
Länge: 1h 38mn
Größe: 10.8 GiB (12x1000MiB Parts)
Gruppe: HDC
Quelle: BluRay


[Link nur für registrierte und freigeschaltete Benutzer sichtbar]

Enthaltene Dateien:

Tokarev.2014.1080p.BluRay.DTS.DL.x264-HDC.mkv
Tokarev.2014.1080p.BluRay.DTS.DL.x264-HDC.nfo

Download:

[Link nur für registrierte und freigeschaltete Benutzer sichtbar] Tokarev.2014.1080p.BluRay.DTS.DL.x264-HDC ([Link nur für registrierte und freigeschaltete Benutzer sichtbar])

1fichier, MEGA, Share-Online, Uploaded