PDA

Archiv verlassen und diese Seite im Standarddesign anzeigen : Thor 2011 1080p BluRay AC3 ML x264 - HDC



Zarroc
17.07.14, 08:40
Thor.2011.1080p.BluRay.AC3.ML.x264-HDC

[Link nur für registrierte und freigeschaltete Benutzer sichtbar]


Göttersohn Thor (Chris Hemsworth) steht kurz davor, zum König Asgards gekrönt zu werden, doch Allvater Odin (Anthony Hopkins) kann die feierliche Zeremonie nicht beenden - Grimmige Frostriesen-Renegaten haben den Friedenspakt zwischen Asgard und dem eisigen Jotunheim gebrochen und sind in Odins Waffenkammer eingedrungen. Gegen den Willen seines Vaters reist der aufbrausende Thor mit seinem Bruder Loki (Tom Hiddleston) und einer Schar alter Kampfgefährten in die Heimat seiner Feinde und lässt den uralten Konflikt der Reiche damit erneut entflammen. Erzürnt verbannt Odin seinen Sohn auf die unterentwickelte Erde. Während Thor sich dort mit dem Forscher-Trio Jane (Natalie Portman), Erik (Stellan Skarsgard) und Darcy (Kat Dennings) anfreundet, fällt der gramgeplagte Allvater in einen verwunschenen Schlaf, sodass nun der diabolische Loki auf dem Thron Platz nimmt...

MediaInfo:

General
Unique ID : 187354996541373107523799770096781140633 (0x8CF34282B57B6375B2F48C3C4BCAA299)
Complete name : Thor.2011.1080p.BluRay.AC3.ML.x264-HDC.mkv
Format : Matroska
Format version : Version 2
File size : 11.8 GiB
Duration : 1h 54mn
Overall bit rate : 14.7 Mbps
Encoded date : UTC 2011-09-03 18:40:25
Writing application : mkvmerge v4.9.1 ('Ich will') gebaut am Jul 11 2011 23:53:15
Writing library : libebml v1.2.1 + libmatroska v1.1.1

Video
ID : 1
Format : AVC
Format/Info : Advanced Video Codec
Format profile : High@L4.1
Format settings, CABAC : Yes
Format settings, ReFrames : 5 frames
Codec ID : V_MPEG4/ISO/AVC
Duration : 1h 54mn
Bit rate : 11.9 Mbps
Width : 1 920 pixels
Height : 816 pixels
Display aspect ratio : 2.35:1
Frame rate mode : Constant
Frame rate : 23.976 fps
Color space : YUV
Chroma subsampling : 4:2:0
Bit depth : 8 bits
Scan type : Progressive
Bits/(Pixel*Frame) : 0.316
Stream size : 9.31 GiB (79%)
Title : HDC Thor 2011
Writing library : x264 core 116 r2074kMod 2641b9e
Encoding settings : cabac=1 / ref=5 / deblock=1:-3:-1 / analyse=0x3:0x113 / me=umh / subme=9 / psy=1 / fade_compensate=0.00 / psy_rd=1.05:0.00 / mixed_ref=1 / me_range=64 / chroma_me=1 / trellis=2 / 8x8dct=1 / cqm=0 / deadzone=21,11 / fast_pskip=0 / chroma_qp_offset=-2 / threads=6 / sliced_threads=0 / nr=0 / decimate=0 / interlaced=0 / bluray_compat=0 / constrained_intra=0 / bframes=5 / b_pyramid=2 / b_adapt=2 / b_bias=0 / direct=3 / weightb=1 / open_gop=0 / weightp=2 / keyint=250 / keyint_min=23 / scenecut=40 / intra_refresh=0 / rc_lookahead=125 / rc=2pass / mbtree=1 / bitrate=11884 / ratetol=1.0 / qcomp=0.70 / qpmin=0 / qpmax=69 / qpstep=4 / cplxblur=20.0 / qblur=0.5 / ip_ratio=1.40 / aq=1:0.70
Language : German
Default : No
Forced : No

Audio #1
ID : 2
Format : AC-3
Format/Info : Audio Coding 3
Mode extension : CM (complete main)
Format settings, Endianness : Big
Codec ID : A_AC3
Duration : 1h 54mn
Bit rate mode : Constant
Bit rate : 640 Kbps
Channel(s) : 6 channels
Channel positions : Front: L C R, Side: L R, LFE
Sampling rate : 48.0 KHz
Bit depth : 16 bits
Compression mode : Lossy
Stream size : 526 MiB (4%)
Title : AC3 5.1 @ 640 kbps
Language : German
Default : Yes
Forced : No

Audio #2
ID : 3
Format : DTS
Format/Info : Digital Theater Systems
Format profile : ES
Mode : 16
Format settings, Endianness : Big
Codec ID : A_DTS
Duration : 1h 54mn
Bit rate mode : Constant
Bit rate : 1 509 Kbps
Channel(s) : 6 channels
Channel positions : Front: L C R, Side: L R, LFE
Sampling rate : 48.0 KHz
Bit depth : 24 bits
Compression mode : Lossy
Stream size : 1.21 GiB (10%)
Title : DTS 5.1 @ 1510 kbps core DTSMA
Language : English
Default : No
Forced : No

Audio #3
ID : 4
Format : AC-3
Format/Info : Audio Coding 3
Mode extension : CM (complete main)
Format settings, Endianness : Big
Codec ID : A_AC3
Duration : 1h 54mn
Bit rate mode : Constant
Bit rate : 640 Kbps
Channel(s) : 6 channels
Channel positions : Front: L C R, Side: L R, LFE
Sampling rate : 48.0 KHz
Bit depth : 16 bits
Compression mode : Lossy
Stream size : 526 MiB (4%)
Title : AC3 5.1 @ 640 kbps
Language : Italian
Default : No
Forced : No

Text #1
ID : 5
Format : VobSub
Muxing mode : zlib
Codec ID : S_VOBSUB
Codec ID/Info : The same subtitle format used on DVDs
Title : German Forced VobSub
Language : German
Default : Yes
Forced : Yes

Text #2
ID : 6
Format : VobSub
Muxing mode : zlib
Codec ID : S_VOBSUB
Codec ID/Info : The same subtitle format used on DVDs
Title : German VobSub
Language : German
Default : No
Forced : No

Text #3
ID : 7
Format : VobSub
Muxing mode : zlib
Codec ID : S_VOBSUB
Codec ID/Info : The same subtitle format used on DVDs
Title : English VobSub
Language : English
Default : No
Forced : No

Text #4
ID : 8
Format : VobSub
Muxing mode : zlib
Codec ID : S_VOBSUB
Codec ID/Info : The same subtitle format used on DVDs
Title : English SDH VobSub
Language : English
Default : No
Forced : No

Text #5
ID : 9
Format : VobSub
Muxing mode : zlib
Codec ID : S_VOBSUB
Codec ID/Info : The same subtitle format used on DVDs
Title : Italian Forced VobSub
Language : Italian
Default : No
Forced : No

Text #6
ID : 10
Format : VobSub
Muxing mode : zlib
Codec ID : S_VOBSUB
Codec ID/Info : The same subtitle format used on DVDs
Title : Italian VobSub
Language : Italian
Default : No
Forced : No

Menu
00:00:00.000 : en:Chapter 1
00:10:38.137 : en:Chapter 2
00:17:33.135 : en:Chapter 3
00:26:02.603 : en:Chapter 4
00:32:28.196 : en:Chapter 5
00:37:28.413 : en:Chapter 6
00:42:14.198 : en:Chapter 7
00:52:10.377 : en:Chapter 8
01:01:24.973 : en:Chapter 9
01:08:45.538 : en:Chapter 10
01:15:39.160 : en:Chapter 11
01:21:19.249 : en:Chapter 12
01:30:35.347 : en:Chapter 13
01:40:58.177 : en:Chapter 14
01:45:13.724 : en:Chapter 15
01:53:06.196 : en:Chapter 16



NFO:

HHHHHHHHH HHHHHHHHHDDDDDDDDDDDDD CCCCCCCCCCCCC
H:::::::H H:::::::HD::::::::::::DDD CCC::::::::::::C
H:::::::H H:::::::HD:::::::::::::::DD CC:::::::::::::::C
HH::::::H H::::::HHDDD:::::DDDDD:::::D C:::::CCCCCCCC::::C
H:::::H H:::::H D:::::D D:::::D C:::::C CCCCCC
H:::::H H:::::H D:::::D D:::::DC:::::C
H::::::HHHHH::::::H D:::::D D:::::DC:::::C
H:::::::::::::::::H D:::::D D:::::DC:::::C
H:::::::::::::::::H D:::::D D:::::DC:::::C
H::::::HHHHH::::::H D:::::D D:::::DC:::::C
H:::::H H:::::H D:::::D D:::::DC:::::C
H:::::H H:::::H D:::::D D:::::D C:::::C CCCCCC
HH::::::H H::::::HHDDD:::::DDDDD:::::D C:::::CCCCCCCC::::C
H:::::::H H:::::::HD:::::::::::::::DD CC:::::::::::::::C
H:::::::H H:::::::HD::::::::::::DDD CCC::::::::::::C
HHHHHHHHH HHHHHHHHHDDDDDDDDDDDDD CCCCCCCCCCCCC

--- What else ---
------------------------------------------------------------------


Proudly presents

Thor.2011.1080p.BluRay.AC3.ML.x264-HDC



//Genre//

Action | Adventure | Fantasy



//Tagline//

The god of thunder. The king of Asgard. The god of mischief.
The guardian of worlds. The goddess of war. The woman of science.



//Plot//

The warrior Thor (Hemsworth) is cast out of the fantastic realm
of Asgard by his father Odin (Hopkins) for his arrogance and sent
to Earth to live among humans. Falling in love with scientist
Jane Foster (Portman) teaches Thor much-needed lessons, and his
new-found strength comes into play as a villain from his homeland
sends dark forces toward Earth.




//General Information//

Release Name..: Thor.2011.1080p.BluRay.AC3.ML.x264-HDC
Release Date..: 03.08.2011
Runtime.......: 114 mins.
Size..........: 11,7 GB
Video Codec...: x264 [LVL4.1][DXVA]
Framerate.....: 23.976 fps
Bitrate.......: ~ 11800 kbps
Resolution....: 1920x816 [AR 2,35:1]
Audio 1.......: German 5.1 AC3 @ 640 kbps
Audio 2.......: English 5.1 DTS @ 1510 kbps core DTSMA
Audio 3.......: Italian 5.1 AC3 @ 640 kbps
Chapters......: YES like BluRay
Subtitle.VS...: German / German Forced
Subtitle.VS...: English / English SDH
Subtitle.VS...: Italian / Italian Forced
Source........: Thor 2011 Euro BluRay
IMDB Rating...: 7.3/10 [73,935 votes]
IMDB Link.....: [Link nur für registrierte und freigeschaltete Benutzer sichtbar]


//x264//

x264 [info]: profile High, level 4.1

x264 [info]: frame I:1364 Avg QP:14.60 size:233842
x264 [info]: frame P:40242 Avg QP:17.16 size: 89384
x264 [info]: frame B:123603 Avg QP:18.71 size: 51130
x264 [info]: consecutive B-frames: 3.5% 5.1% 9.5% 17.7% 25.4% 38.8%

encoded 165209 frames, 1.90 fps, 11883.71 kb/s
x264 [info]: ended at Sat Sep 03 16:47:50 2011
x264 [info]: encoding duration 24:05:43


//Notes//

Sprache: Dubs: German, English, Italian; Subs: German, English, Italian
Länge: 1h 54mn
Größe: 11.8 GiB (13x1000MiB Parts)
Gruppe: HDC
Quelle: BluRay


[Link nur für registrierte und freigeschaltete Benutzer sichtbar]

Enthaltene Dateien:

Thor.2011.1080p.BluRay.AC3.ML.x264-HDC.mkv
Thor.2011.1080p.BluRay.AC3.ML.x264-HDC.nfo

Download:

[Link nur für registrierte und freigeschaltete Benutzer sichtbar] Thor.2011.1080p.BluRay.AC3.ML.x264-HDC ([Link nur für registrierte und freigeschaltete Benutzer sichtbar])

1fichier, MEGA, Share-Online, Uploaded