PDA

Archiv verlassen und diese Seite im Standarddesign anzeigen : Das ist das Ende This is the End 2013 1080p BluRay DTS DL x264 - HDC



Zarroc
17.07.14, 08:39
This.is.the.End.2013.1080p.BluRay.DTS.DL.x264-HDC
aka "Das ist das Ende"

[Link nur für registrierte und freigeschaltete Benutzer sichtbar]


Während einer Party im Haus von James Franco (James Franco) müssen Jay Baruchel (Jay Baruchel), Seth Rogen (Seth Rogen) und einige andere Berühmtheiten feststellen, dass draußen seltsame Dinge vor sich gehen, wie zum Beispiel unerklärliche Erdrutsche und Feuerwände, die durch die Gegend walzen. Der Großteil der Partygäste entschließt sich dazu, panisch zu flüchten, während sechs Freunde beschließen, sich in Francos Haus zu verbarrikadieren. Bald jedoch sinkt die Stimmung bei ihnen ins Bodenlose, denn die Vorräte schwinden, alle benehmen sich völlig daneben und plötzlich taucht auch noch Emma Watson (Emma Watson) auf. Vor der Tür häufen sich schließlich die merkwürdigen Vorfälle und drinnen ist die Gemütslage alsbald ähnlich apokalyptisch. Schließlich beschließen James Franco und Co., das Haus zu verlassen und sich dem vermeintlichen Weltuntergang zu stellen - ganz nebenbei erkennen sie den wahren Wert von Freundschaft.

MediaInfo:

General
Unique ID : 255124500040984949622600791274277329687 (0xBFEF3100BE02DD61B2C779B22B8C5B17)
Complete name : This.is.the.End.2013.1080p.BluRay.DTS.DL.x264-HDC.mkv
Format : Matroska
Format version : Version 4 / Version 2
File size : 15.1 GiB
Duration : 1h 46mn
Overall bit rate : 20.3 Mbps
Encoded date : UTC 2014-01-01 22:22:56
Writing application : mkvmerge v6.6.0 ('The Edge Of The In Between') built on Dec 1 2013 17:55:00
Writing library : libebml v1.3.0 + libmatroska v1.4.1

Video
ID : 1
Format : AVC
Format/Info : Advanced Video Codec
Format profile : High@L4.1
Format settings, CABAC : Yes
Format settings, ReFrames : 4 frames
Codec ID : V_MPEG4/ISO/AVC
Duration : 1h 46mn
Bit rate : 16.8 Mbps
Width : 1 920 pixels
Height : 802 pixels
Display aspect ratio : 2.40:1
Frame rate mode : Constant
Frame rate : 23.976 fps
Color space : YUV
Chroma subsampling : 4:2:0
Bit depth : 8 bits
Scan type : Progressive
Bits/(Pixel*Frame) : 0.455
Stream size : 12.5 GiB (82%)
Writing library : x264 core 133 r2334 a3ac64b
Encoding settings : cabac=1 / ref=4 / deblock=1:-2:-2 / analyse=0x3:0x113 / me=umh / subme=9 / psy=1 / psy_rd=1.20:0.00 / mixed_ref=1 / me_range=18 / chroma_me=1 / trellis=2 / 8x8dct=1 / cqm=0 / deadzone=21,11 / fast_pskip=0 / chroma_qp_offset=-2 / threads=8 / lookahead_threads=1 / sliced_threads=0 / nr=0 / decimate=1 / interlaced=0 / bluray_compat=0 / constrained_intra=0 / bframes=5 / b_pyramid=2 / b_adapt=2 / b_bias=0 / direct=3 / weightb=1 / open_gop=0 / weightp=2 / keyint=250 / keyint_min=23 / scenecut=40 / intra_refresh=0 / rc_lookahead=88 / rc=2pass / mbtree=1 / bitrate=16792 / ratetol=1.0 / qcomp=0.80 / qpmin=0 / qpmax=69 / qpstep=4 / cplxblur=20.0 / qblur=0.5 / ip_ratio=1.40 / aq=1:1.00
Default : Yes
Forced : No

Audio #1
ID : 2
Format : DTS
Format/Info : Digital Theater Systems
Mode : 16
Format settings, Endianness : Big
Codec ID : A_DTS
Duration : 1h 46mn
Bit rate mode : Constant
Bit rate : 1 509 Kbps
Channel(s) : 6 channels
Channel positions : Front: L C R, Side: L R, LFE
Sampling rate : 48.0 KHz
Bit depth : 24 bits
Compression mode : Lossy
Stream size : 1.12 GiB (7%)
Title : 5.1 DTS @ 1509kbps
Language : German
Default : Yes
Forced : No

Audio #2
ID : 3
Format : DTS
Format/Info : Digital Theater Systems
Mode : 16
Format settings, Endianness : Big
Codec ID : A_DTS
Duration : 1h 46mn
Bit rate mode : Constant
Bit rate : 1 509 Kbps
Channel(s) : 6 channels
Channel positions : Front: L C R, Side: L R, LFE
Sampling rate : 48.0 KHz
Bit depth : 24 bits
Compression mode : Lossy
Stream size : 1.12 GiB (7%)
Title : 5.1 DTS @ 1509kbps
Language : English
Default : No
Forced : No

Audio #3
ID : 4
Format : AC-3
Format/Info : Audio Coding 3
Format profile : Dolby Digital
Mode extension : CM (complete main)
Format settings, Endianness : Big
Codec ID : A_AC3
Duration : 1h 46mn
Bit rate mode : Constant
Bit rate : 192 Kbps
Channel(s) : 2 channels
Channel positions : Front: L R
Sampling rate : 48.0 KHz
Bit depth : 16 bits
Compression mode : Lossy
Stream size : 147 MiB (1%)
Title : 2.0 Commentary AC3 @ 192kbps
Language : English
Default : No
Forced : No

Text #1
ID : 5
Format : VobSub
Codec ID : S_VOBSUB
Codec ID/Info : The same subtitle format used on DVDs
Title : VOB
Language : German
Default : Yes
Forced : No

Text #2
ID : 6
Format : PGS
Codec ID : S_HDMV/PGS
Codec ID/Info : The same subtitle format used on BDs/HD-DVDs
Title : PGS
Language : German
Default : No
Forced : No

Text #3
ID : 7
Format : VobSub
Codec ID : S_VOBSUB
Codec ID/Info : The same subtitle format used on DVDs
Title : VOB
Language : English
Default : No
Forced : No

Text #4
ID : 8
Format : PGS
Codec ID : S_HDMV/PGS
Codec ID/Info : The same subtitle format used on BDs/HD-DVDs
Title : PGS
Language : English
Default : No
Forced : No

Text #5
ID : 9
Format : VobSub
Codec ID : S_VOBSUB
Codec ID/Info : The same subtitle format used on DVDs
Title : VOB
Language : Turkish
Default : No
Forced : No

Text #6
ID : 10
Format : PGS
Codec ID : S_HDMV/PGS
Codec ID/Info : The same subtitle format used on BDs/HD-DVDs
Title : PGS
Language : Turkish
Default : No
Forced : No

Text #7
ID : 11
Format : VobSub
Codec ID : S_VOBSUB
Codec ID/Info : The same subtitle format used on DVDs
Title : VOB Commentary
Language : German
Default : No
Forced : No

Text #8
ID : 12
Format : PGS
Codec ID : S_HDMV/PGS
Codec ID/Info : The same subtitle format used on BDs/HD-DVDs
Title : PGS Commentary
Language : German
Default : No
Forced : No

Menu
00:00:00.000 : en:00:00:00.000
00:05:50.392 : en:00:05:50.392
00:12:12.732 : en:00:12:12.732
00:17:37.598 : en:00:17:37.598
00:23:49.011 : en:00:23:49.011
00:29:23.637 : en:00:29:23.637
00:38:27.847 : en:00:38:27.847
00:44:36.716 : en:00:44:36.716
00:49:16.328 : en:00:49:16.328
00:59:15.594 : en:00:59:15.594
01:06:03.001 : en:01:06:03.001
01:12:45.319 : en:01:12:45.319
01:19:24.969 : en:01:19:24.969
01:26:21.343 : en:01:26:21.343
01:33:17.967 : en:01:33:17.967
01:37:41.773 : en:01:37:41.773



NFO:

HHHHHHHHH HHHHHHHHHDDDDDDDDDDDDD CCCCCCCCCCCCC
H:::::::H H:::::::HD::::::::::::DDD CCC::::::::::::C
H:::::::H H:::::::HD:::::::::::::::DD CC:::::::::::::::C
HH::::::H H::::::HHDDD:::::DDDDD:::::D C:::::CCCCCCCC::::C
H:::::H H:::::H D:::::D D:::::D C:::::C CCCCCC
H:::::H H:::::H D:::::D D:::::DC:::::C
H::::::HHHHH::::::H D:::::D D:::::DC:::::C
H:::::::::::::::::H D:::::D D:::::DC:::::C
H:::::::::::::::::H D:::::D D:::::DC:::::C
H::::::HHHHH::::::H D:::::D D:::::DC:::::C
H:::::H H:::::H D:::::D D:::::DC:::::C
H:::::H H:::::H D:::::D D:::::D C:::::C CCCCCC
HH::::::H H::::::HHDDD:::::DDDDD:::::D C:::::CCCCCCCC::::C
H:::::::H H:::::::HD:::::::::::::::DD CC:::::::::::::::C
H:::::::H H:::::::HD::::::::::::DDD CCC::::::::::::C
HHHHHHHHH HHHHHHHHHDDDDDDDDDDDDD CCCCCCCCCCCCC

--- What else ---
------------------------------------------------------------------


Proudly presents


This.is.the.End.2013.1080p.BluRay.DTS.DL.x264-HDC


Genre.
Comedy | Fantasy


Tagline.
Nothing ruins a party like the end of the world.


Plot.
All Jay Baruchel expected coming to LA was a fun time with Seth Rogen with all the wild partying
to have both by themselves and at James Franco's housewarming party.
Suddenly, the Rapture hits and the Biblical Apocalypse has begun.
Now, Jay and Seth are desperately sheltering in James' house for rescue along with a few other friends.
Together, they must band together to attempt to survive the end of the world,
only for Jay to find that they are all too dumb and superficial to do it until they discover the only way out.


General Information.
Release.Name.........: This.is.the.End.2013.1080p.BluRay.DTS.DL.x264-HDC
Release.Date ........: 02.01.2014
RUNTIME..............: 01h:46m:41s
SIZE.................: 15.1 GB
VIDEO CODEC..........: x264
FRAMERATE............: 23.976 fps
BITRATE..............: 16792 kbps [Source=24961 kbps]
RESOLUTION...........: 1920x802 [AR 2.39:1]
AUDIO.1..............: German 5.1 DTS @ 1509 kbps
AUDIO.2..............: English 5.1 DTS @ 1509 kbps
COMMENTARY.AUDIO.....: English 2.0 AC3 @ 192 kbps
SUBTITLES.VOB&PGS....: Ger, Eng, Tur
CHAPTERS.............: Yes, like BluRay
SOURCE...............: This.is.the.End.2013.DUAL.COMPLETE.BLURAY-SharpHD <3 I LOVE YOU GUYS :))
IMDB.RATING..........: 6,9/10 from 156 083 votes
IMDB.LINK............: [Link nur für registrierte und freigeschaltete Benutzer sichtbar]


x264 [info]: profile High, level 4.1
x264 [info]: frame I:1425 Avg QP:10.05 size:251929
x264 [info]: frame P:37481 Avg QP:12.27 size:121253
x264 [info]: frame B:114574 Avg QP:13.22 size: 74469
x264 [info]: consecutive B-frames: 2.7% 2.8% 9.7% 40.6% 16.3% 28.0%
x264 [info]: SSIM Mean Y:0.9907977

encoded 153480 frames, 4.97 fps, 16791.22 kb/s

Sprache: Dubs: German, English; Subs: German, English, Turkish
Länge: 1h 46mn
Größe: 15.1 GiB (16x1000MiB Parts)
Gruppe: HDC
Quelle: BluRay


[Link nur für registrierte und freigeschaltete Benutzer sichtbar]

Enthaltene Dateien:

This.is.the.End.2013.1080p.BluRay.DTS.DL.x264-HDC.mkv
This.is.the.End.2013.1080p.BluRay.DTS.DL.x264-HDC.nfo

Download:

[Link nur für registrierte und freigeschaltete Benutzer sichtbar] This.is.the.End.2013.1080p.BluRay.DTS.DL.x264-HDC ([Link nur für registrierte und freigeschaltete Benutzer sichtbar])

1fichier, MEGA, Share-Online, Uploaded