PDA

Archiv verlassen und diese Seite im Standarddesign anzeigen : The Matrix Reloaded 2003 1080p BluRay AC3 x264 dxva - HDC



Zarroc
17.07.14, 08:32
The.Matrix.Reloaded.2003.1080p.BluRay.AC3.x264.dxv a-HDC

[Link nur für registrierte und freigeschaltete Benutzer sichtbar]


Die unterirdische Menschenstadt Zion wird bedroht. 250.000 Wächter der Maschinen schicken sich an, den letzten Zufluchtsort der Menschheit auszulöschen. Der Vordenker und heimliche Anführer Morpheus (Laurence Fishburn), der fest an die Erfüllung der Prophezeiung des Orakels (Gloria Foster) glaubt, macht den Bürgern Zions Hoffnung, dass die Rettung nahe ist und der Erwählte Neo (Keanu Reeves) den Krieg gegen die Maschinen bald beenden werde. Auf der Erkundungsreise in der Matrix sammelt Neo weitere Erkenntnisse, trifft das Orakel und muss entscheiden, ob er der Frau trauen kann. Gleichzeitig muss sich Neo mit dem abtrünnigen Agenten Smith (Hugo Weaving) auseinandersetzen. Er hat einen Weg gefunden, sich fast beliebig zu duplizieren und attackiert den Auserwählten unnachgiebig. Bald macht Neo eine unerwartete Entdeckung und steht vor einer folgenschweren Entscheidung. Versagt er, ist Zions Ende besiegelt...

MediaInfo:

General
Unique ID : 253897205562044363261860916637362524047 (0xBF02D2B69AA9D7749129B7D7610B8F8F)
Complete name : The.Matrix.Reloaded.2003.1080p.BluRay.AC3.x264.dxv a-HDC.mkv
Format : Matroska
Format version : Version 1
File size : 13.7 GiB
Duration : 2h 18mn
Overall bit rate : 14.1 Mbps
Encoded date : UTC 2009-01-29 01:05:53
Writing application : mkvmerge v2.4.0 ('Fumbling Towards Ecstasy') built on Oct 11 2008 20:13:15
Writing library : libebml v0.7.7 + libmatroska v0.8.1

Video
ID : 1
Format : AVC
Format/Info : Advanced Video Codec
Format profile : High@L4.1
Format settings, CABAC : Yes
Format settings, ReFrames : 4 frames
Codec ID : V_MPEG4/ISO/AVC
Duration : 2h 18mn
Bit rate : 13.5 Mbps
Width : 1 920 pixels
Height : 800 pixels
Display aspect ratio : 2.40:1
Frame rate mode : Constant
Frame rate : 23.976 fps
Color space : YUV
Chroma subsampling : 4:2:0
Bit depth : 8 bits
Scan type : Progressive
Bits/(Pixel*Frame) : 0.367
Stream size : 12.8 GiB (93%)
Title : 13.5 Mbp/s AVC MPEG-4
Writing library : x264 core 65 r1080M 56e9183
Encoding settings : cabac=1 / ref=4 / deblock=1:-3:-3 / analyse=0x3:0x113 / me=umh / subme=9 / psy_rd=0.8:0.0 / mixed_ref=1 / me_range=24 / chroma_me=1 / trellis=2 / 8x8dct=1 / cqm=0 / deadzone=21,11 / chroma_qp_offset=-2 / threads=6 / nr=0 / decimate=1 / mbaff=0 / bframes=3 / b_pyramid=1 / b_adapt=2 / b_bias=0 / direct=3 / wpredb=1 / keyint=250 / keyint_min=25 / scenecut=40(pre) / rc=2pass / bitrate=13500 / ratetol=1.0 / qcomp=0.60 / qpmin=10 / qpmax=51 / qpstep=4 / cplxblur=20.0 / qblur=0.5 / vbv_maxrate=38000 / vbv_bufsize=38000 / ip_ratio=1.40 / pb_ratio=1.30 / aq=1:0.80
Language : German
Default : Yes
Forced : No

Audio
ID : 2
Format : AC-3
Format/Info : Audio Coding 3
Mode extension : CM (complete main)
Format settings, Endianness : Big
Codec ID : A_AC3
Duration : 2h 18mn
Bit rate mode : Constant
Bit rate : 640 Kbps
Channel count : 6 channels
Channel positions : Front: L C R, Side: L R, LFE
Sampling rate : 48.0 KHz
Bit depth : 16 bits
Compression mode : Lossy
Stream size : 633 MiB (5%)
Title : 5.1 AC3 640 kbp/s
Language : German
Default : Yes
Forced : No

Text #1
ID : 3
Format : UTF-8
Codec ID : S_TEXT/UTF8
Codec ID/Info : UTF-8 Plain Text
Language : German
Default : No
Forced : No

Text #2
ID : 4
Format : UTF-8
Codec ID : S_TEXT/UTF8
Codec ID/Info : UTF-8 Plain Text
Language : English
Default : No
Forced : No



NFO:

HHHHHHHHH HHHHHHHHHDDDDDDDDDDDDD CCCCCCCCCCCCC
H:::::::H H:::::::HD::::::::::::DDD CCC::::::::::::C
H:::::::H H:::::::HD:::::::::::::::DD CC:::::::::::::::C
HH::::::H H::::::HHDDD:::::DDDDD:::::D C:::::CCCCCCCC::::C
H:::::H H:::::H D:::::D D:::::D C:::::C CCCCCC
H:::::H H:::::H D:::::D D:::::DC:::::C
H::::::HHHHH::::::H D:::::D D:::::DC:::::C
H:::::::::::::::::H D:::::D D:::::DC:::::C
H:::::::::::::::::H D:::::D D:::::DC:::::C
H::::::HHHHH::::::H D:::::D D:::::DC:::::C
H:::::H H:::::H D:::::D D:::::DC:::::C
H:::::H H:::::H D:::::D D:::::D C:::::C CCCCCC
HH::::::H H::::::HHDDD:::::DDDDD:::::D C:::::CCCCCCCC::::C
H:::::::H H:::::::HD:::::::::::::::DD CC:::::::::::::::C
H:::::::H H:::::::HD::::::::::::DDD CCC::::::::::::C
HHHHHHHHH HHHHHHHHHDDDDDDDDDDDDD CCCCCCCCCCCCC

--- What else ---
------------------------------------------------------------------


Proudly Presents


The.Matrix.Reloaded.2003.1080p.BluRay.AC3.x264.dxv a-HDC


Plot.
Neo and the rebel leaders estimate that they have 72 hours until 250,000 probes
discover Zion and destroy it and its inhabitants. During this, Neo must decide how
he can save Trinity from a dark fate in his dreams



General Information
RUNTIME.......: 2h:18m:15s
SIZE..........: 13.6 GB
VIDEO CODEC...: x264[LVL4.1][DXVA]
FRAMERATE.....: 23.976 fps
BITRATE.......: 13500 kbp/s
RESOLUTION....: 1920x800 [AR 2.40 : 1]
AUDIO.........: German 5.1 AC3 640 kbp/s
SUBTITLE......: German,English
SOURCE........: The Matrix Trilogy 1080p Blu-ray EUR VC-1 TrueHD
IMDB RATING...: 7.0/10 (123,747 votes)
IMDB LINK.....: [Link nur für registrierte und freigeschaltete Benutzer sichtbar]
RELEASE DATE..: 29/01/2009



x264 [info]: profile High, level 4.1
x264 [info]: slice I:3894 Avg QP:14.16 size:163829
x264 [info]: slice P:68986 Avg QP:15.41 size:101098
x264 [info]: slice B:126011 Avg QP:17.29 size: 50672


encoded 198891 frames, 2.44 fps, 13499.18 kb/s



//Notes//

Playable on Ps3 & Popcornhour









Sprache: Dubs: German; Subs: German, English
Länge: 2h 18mn
Größe: 13.7 GiB (14x1000MiB Parts)
Gruppe: HDC
Quelle: BluRay


[Link nur für registrierte und freigeschaltete Benutzer sichtbar]

Enthaltene Dateien:

The.Matrix.Reloaded.2003.1080p.BluRay.AC3.x264.dxv a-HDC.mkv
The.Matrix.Reloaded.2003.1080p.BluRay.AC3.x264.dxv a-HDC.nfo

Download:

[Link nur für registrierte und freigeschaltete Benutzer sichtbar] The.Matrix.Reloaded.2003.1080p.BluRay.AC3.x264.dxv a-HDC ([Link nur für registrierte und freigeschaltete Benutzer sichtbar])

1fichier, MEGA, Share-Online, Uploaded