PDA

Archiv verlassen und diese Seite im Standarddesign anzeigen : Der unglaubliche Hulk The Incredible Hulk 2008 1080p BluRay DTS x264 dxva - HDC



Zarroc
17.07.14, 07:30
The.Incredible.Hulk.2008.1080p.BluRay.DTS.x264.dxv a-HDC
aka "Der unglaubliche Hulk"

[Link nur für registrierte und freigeschaltete Benutzer sichtbar]


Wenn Menschen wütend sind, reagieren sie unterschiedlich. Der eine schreit rum, der nächste lässt seine Aggression an Gegenständen aus. Bruce Banner (Edward Norton) hingegen verwandelt sich in das grüne Monster Hulk, sobald sein Puls die Marke von 200 Schlägen pro Minute übersteigt. Weil General "Thunderbolt" Ross (William Hurt) Hulks Kräfte für militärische Zwecke ausschlachten wollte, floh Banner nach Brasilien. Dort arbeitet er seitdem an Entspannungstechniken und schuftet in einer Limonaden-Fabrik. Durch einen unglücklichen Zufall stößt das US-Militär jedoch auf die Spur des Flüchtigen. Banner muss erneut abhauen und schleicht sich zurück in die USA, wo er mit der Unterstützung von Ross' Tochter Betty (Liv Tyler) nach einer Kur für seinen Zustand forschen will. Dabei wird er erneut von Ross gestört, der die versammelte US-Kriegsmaschinerie auf den grünen Muskelprotz hetzt. Als auch dies nicht hilft, Hulk zu stoppen, setzt sich der kampfbesessene Marine Emil Blonsky (Tim Roth) freiwillig ähnlichen Experimenten wie einst Banner aus, um dem Hulk als würdiger Gegner gegenüberzutreten...

MediaInfo:

General
Unique ID : 228796514941049284304645691028009138370 (0xAC209B1E3477187892DEB874806438C2)
Complete name : The.Incredible.Hulk.2008.1080p.BluRay.DTS.x264.dxv a-HDC.mkv
Format : Matroska
Format version : Version 1
File size : 9.83 GiB
Duration : 1h 52mn
Overall bit rate : 12.5 Mbps
Encoded date : UTC 2008-11-17 22:43:06
Writing application : mkvmerge v2.4.0 ('Fumbling Towards Ecstasy') built on Oct 11 2008 20:13:15
Writing library : libebml v0.7.7 + libmatroska v0.8.1

Video
ID : 1
Format : AVC
Format/Info : Advanced Video Codec
Format profile : High@L4.1
Format settings, CABAC : Yes
Format settings, ReFrames : 4 frames
Codec ID : V_MPEG4/ISO/AVC
Duration : 1h 52mn
Bit rate : 11.0 Mbps
Width : 1 920 pixels
Height : 816 pixels
Display aspect ratio : 2.35:1
Frame rate mode : Constant
Frame rate : 23.976 fps
Color space : YUV
Chroma subsampling : 4:2:0
Bit depth : 8 bits
Scan type : Progressive
Bits/(Pixel*Frame) : 0.294
Stream size : 8.45 GiB (86%)
Title : 11 Mbp/s AVC H.264
Writing library : x264 core 65 r1026M 745a48b
Encoding settings : cabac=1 / ref=4 / deblock=1:-3:-3 / analyse=0x3:0x113 / me=umh / subme=9 / psy_rd=0.8:0.0 / mixed_ref=1 / me_range=32 / chroma_me=1 / trellis=2 / 8x8dct=1 / cqm=0 / deadzone=21,11 / chroma_qp_offset=-2 / threads=6 / nr=0 / decimate=1 / mbaff=0 / bframes=3 / b_pyramid=1 / b_adapt=2 / b_bias=0 / direct=3 / wpredb=1 / keyint=250 / keyint_min=25 / scenecut=40(pre) / rc=2pass / bitrate=11025 / ratetol=1.0 / qcomp=0.60 / qpmin=10 / qpmax=51 / qpstep=4 / cplxblur=20.0 / qblur=0.5 / vbv_maxrate=38000 / vbv_bufsize=38000 / ip_ratio=1.40 / pb_ratio=1.30 / aq=1:1.00
Default : Yes
Forced : No

Audio
ID : 2
Format : DTS
Format/Info : Digital Theater Systems
Mode : 16
Format settings, Endianness : Big
Codec ID : A_DTS
Duration : 1h 52mn
Bit rate mode : Constant
Bit rate : 1 509 Kbps
Channel count : 6 channels
Channel positions : Front: L C R, Side: L R, LFE
Sampling rate : 48.0 KHz
Bit depth : 16 bits
Compression mode : Lossy
Stream size : 1.18 GiB (12%)
Title : 5.1 DTS 1536 kbp/s
Language : German
Default : Yes
Forced : No

Text
ID : 3
Format : UTF-8
Codec ID : S_TEXT/UTF8
Codec ID/Info : UTF-8 Plain Text
Language : German
Default : No
Forced : No



NFO:

HHHHHHHHH HHHHHHHHHDDDDDDDDDDDDD CCCCCCCCCCCCC
H:::::::H H:::::::HD::::::::::::DDD CCC::::::::::::C
H:::::::H H:::::::HD:::::::::::::::DD CC:::::::::::::::C
HH::::::H H::::::HHDDD:::::DDDDD:::::D C:::::CCCCCCCC::::C
H:::::H H:::::H D:::::D D:::::D C:::::C CCCCCC
H:::::H H:::::H D:::::D D:::::DC:::::C
H::::::HHHHH::::::H D:::::D D:::::DC:::::C
H:::::::::::::::::H D:::::D D:::::DC:::::C
H:::::::::::::::::H D:::::D D:::::DC:::::C
H::::::HHHHH::::::H D:::::D D:::::DC:::::C
H:::::H H:::::H D:::::D D:::::DC:::::C
H:::::H H:::::H D:::::D D:::::D C:::::C CCCCCC
HH::::::H H::::::HHDDD:::::DDDDD:::::D C:::::CCCCCCCC::::C
H:::::::H H:::::::HD:::::::::::::::DD CC:::::::::::::::C
H:::::::H H:::::::HD::::::::::::DDD CCC::::::::::::C
HHHHHHHHH HHHHHHHHHDDDDDDDDDDDDD CCCCCCCCCCCCC

--- What else --- |||| [Link nur für registrierte und freigeschaltete Benutzer sichtbar] ||||
------------------------------------------------------------------



The.Incredible.Hulk.2008.1080p.BluRay.DTS.x264.dxv a-HDC


Plot.
Fugitive Dr. Bruce Banner must utilize the genetic accident
that transforms him into a giant, rampaging hulk to stop
a former soldier that purposely becomes an even more
dangerous version.


General Information
RUNTIME.......: 01h:52m:16s
SIZE..........: 9,83 GB
VIDEO CODEC...: x264 [LVL4.1][DXVA]
FRAMERATE.....: 23.976 fps
BITRATE.......: 11024 kbp/s
RESOLUTION....: 1920x816 [AR 2.35 : 1]
AUDIO.I.......: German DTS 5.1 / 1536 kbps
SOURCE........: The Incredible Hulk GER Blu-Ray 1080p VC-1 DTS-HD 5.1
IMDB RATING...: 7.3/10 (53,007 votes)
IMDB LINK.....: [Link nur für registrierte und freigeschaltete Benutzer sichtbar]

ENCODER.......: st0niMah0ni @ HD-Center
RELEASE DATE..: 19/11/2008


x264 [info]: slice I:3003 Avg QP:15.55 size:153176
x264 [info]: slice P:68370 Avg QP:16.95 size: 81197
x264 [info]: slice B:90153 Avg QP:19.05 size: 36304


encoded 161526 frames, 2.51 fps, 11024.99 kb/s


Notes

Playable on / Ps3 & Popcornhour


Greetz fly out to

TvR / jTV / khpp / blink / BanG / TYC / GrandDK / HD1080



Sprache: Dubs: German; Subs: German
Länge: 1h 52mn
Größe: 9.83 GiB (11x1000MiB Parts)
Gruppe: HDC
Quelle: BluRay


[Link nur für registrierte und freigeschaltete Benutzer sichtbar]

Enthaltene Dateien:

The.Incredible.Hulk.2008.1080p.BluRay.DTS.x264.dxv a-HDC.mkv
The.Incredible.Hulk.2008.1080p.BluRay.DTS.x264.dxv a-HDC.nfo

Download:

[Link nur für registrierte und freigeschaltete Benutzer sichtbar] The.Incredible.Hulk.2008.1080p.BluRay.DTS.x264.dxv a-HDC ([Link nur für registrierte und freigeschaltete Benutzer sichtbar])

1fichier, MEGA, Share-Online, Uploaded