PDA

Archiv verlassen und diese Seite im Standarddesign anzeigen : The Game 1997 1080p BluRay DTS DL x264 - HDC



Zarroc
17.07.14, 07:21
The.Game.1997.1080p.BluRay.DTS.DL.x264-HDC

[Link nur für registrierte und freigeschaltete Benutzer sichtbar]


Am Anfang von "The Game" ist Nicholas Van Orton (Michael Douglas) ein erfolgreicher Millionär. Aber dann schenkt sein Bruder Conrad (Sean Penn) ihm zum Geburtstag einen Gutschein für ein Spiel. Van Orton zögert zunächst, doch er wäre nicht so weit gekommen, wenn er sich von Risiken hätte abschrecken lassen. Als das Spiel beginnt, häufen sich die merkwürdigen Vorfälle rund um den Millionär. Es dauert nicht lange, da muss er gar um sein Leben fürchten...

MediaInfo:

General
Unique ID : 205673151222545665327248299752237243201 (0x9ABB35440C98D0F597486EC3F1471B41)
Complete name : The.Game.1997.1080p.BluRay.DTS.DL.x264-HDC.mkv
Format : Matroska
Format version : Version 2
File size : 10.8 GiB
Duration : 2h 8mn
Overall bit rate : 12.0 Mbps
Encoded date : UTC 2010-08-16 03:53:18
Writing application : mkvmerge v4.0.0 ('The Stars were mine') gebaut am Jun 6 2010 16:18:42
Writing library : libebml v1.0.0 + libmatroska v1.0.0

Video
ID : 1
Format : AVC
Format/Info : Advanced Video Codec
Format profile : High@L4.1
Format settings, CABAC : Yes
Format settings, ReFrames : 5 frames
Codec ID : V_MPEG4/ISO/AVC
Duration : 2h 8mn
Bit rate : 9 747 Kbps
Width : 1 920 pixels
Height : 816 pixels
Display aspect ratio : 2.35:1
Frame rate mode : Constant
Frame rate : 23.976 fps
Color space : YUV
Chroma subsampling : 4:2:0
Bit depth : 8 bits
Scan type : Progressive
Bits/(Pixel*Frame) : 0.259
Stream size : 8.55 GiB (79%)
Title : 10 Mbps AVC MPEG-4
Writing library : x264 core 104 r1683+3 221daa9
Encoding settings : cabac=1 / ref=5 / deblock=1:-3:-3 / analyse=0x3:0x113 / me=umh / subme=9 / psy=1 / fade_compensate=0.00 / psy_rd=1.20:0.00 / mixed_ref=1 / me_range=24 / chroma_me=1 / trellis=2 / 8x8dct=1 / cqm=0 / deadzone=21,11 / fast_pskip=1 / chroma_qp_offset=-2 / threads=6 / sliced_threads=0 / nr=0 / decimate=1 / interlaced=0 / constrained_intra=0 / fgo=0 / bframes=5 / b_pyramid=2 / b_adapt=2 / b_bias=0 / direct=3 / weightb=1 / open_gop=0 / weightp=2 / keyint=250 / keyint_min=23 / scenecut=40 / intra_refresh=0 / rc_lookahead=80 / rc=2pass / mbtree=1 / bitrate=9747 / ratetol=1.0 / qcomp=0.80 / qpmin=10 / qpmax=51 / qpstep=4 / cplxblur=20.0 / qblur=0.5 / ip_ratio=1.40 / aq=1:0.80
Language : German
Default : No
Forced : No

Audio #1
ID : 2
Format : DTS
Format/Info : Digital Theater Systems
Mode : 16
Format settings, Endianness : Big
Codec ID : A_DTS
Duration : 2h 8mn
Bit rate mode : Constant
Bit rate : 768 Kbps
Channel count : 6 channels
Channel positions : Front: L C R, Side: L R, LFE
Sampling rate : 48.0 KHz
Bit depth : 24 bits
Compression mode : Lossy
Stream size : 707 MiB (6%)
Title : 5.1 DTS @ 755 kbps
Language : German
Default : Yes
Forced : Yes

Audio #2
ID : 3
Format : DTS
Format/Info : Digital Theater Systems
Mode : 16
Format settings, Endianness : Big
Codec ID : A_DTS
Duration : 2h 8mn
Bit rate mode : Constant
Bit rate : 1 509 Kbps
Channel count : 6 channels
Channel positions : Front: L C R, Side: L R, LFE
Sampling rate : 48.0 KHz
Bit depth : 24 bits
Compression mode : Lossy
Stream size : 1.36 GiB (13%)
Title : 5.1 DTS @ 1510 kbps
Language : English
Default : No
Forced : No

Text #1
ID : 4
Format : UTF-8
Codec ID : S_TEXT/UTF8
Codec ID/Info : UTF-8 Plain Text
Title : Forced
Language : German
Default : Yes
Forced : Yes

Text #2
ID : 5
Format : UTF-8
Codec ID : S_TEXT/UTF8
Codec ID/Info : UTF-8 Plain Text
Language : German
Default : No
Forced : No

Text #3
ID : 6
Format : UTF-8
Codec ID : S_TEXT/UTF8
Codec ID/Info : UTF-8 Plain Text
Language : English
Default : No
Forced : No

Menu
00:00:00.000 : en:00:00:00.000
00:02:37.783 : en:00:02:37.783
00:09:13.094 : en:00:09:13.094
00:13:26.723 : en:00:13:26.723
00:20:37.903 : en:00:20:37.903
00:30:32.664 : en:00:30:32.664
00:37:03.638 : en:00:37:03.638
00:43:27.313 : en:00:43:27.313
00:53:41.176 : en:00:53:41.176
00:58:56.700 : en:00:58:56.700
01:04:41.753 : en:01:04:41.753
01:12:34.225 : en:01:12:34.225
01:18:40.758 : en:01:18:40.758
01:24:25.602 : en:01:24:25.602
01:33:40.740 : en:01:33:40.740
01:42:08.456 : en:01:42:08.456
01:46:38.225 : en:01:46:38.225
01:52:17.773 : en:01:52:17.773
02:03:28.234 : en:02:03:28.234



NFO:

HHHHHHHHH HHHHHHHHHDDDDDDDDDDDDD CCCCCCCCCCCCC
H:::::::H H:::::::HD::::::::::::DDD CCC::::::::::::C
H:::::::H H:::::::HD:::::::::::::::DD CC:::::::::::::::C
HH::::::H H::::::HHDDD:::::DDDDD:::::D C:::::CCCCCCCC::::C
H:::::H H:::::H D:::::D D:::::D C:::::C CCCCCC
H:::::H H:::::H D:::::D D:::::DC:::::C
H::::::HHHHH::::::H D:::::D D:::::DC:::::C
H:::::::::::::::::H D:::::D D:::::DC:::::C
H:::::::::::::::::H D:::::D D:::::DC:::::C
H::::::HHHHH::::::H D:::::D D:::::DC:::::C
H:::::H H:::::H D:::::D D:::::DC:::::C
H:::::H H:::::H D:::::D D:::::D C:::::C CCCCCC
HH::::::H H::::::HHDDD:::::DDDDD:::::D C:::::CCCCCCCC::::C
H:::::::H H:::::::HD:::::::::::::::DD CC:::::::::::::::C
H:::::::H H:::::::HD::::::::::::DDD CCC::::::::::::C
HHHHHHHHH HHHHHHHHHDDDDDDDDDDDDD CCCCCCCCCCCCC

--- What else ---
------------------------------------------------------------------


Proudly presents


The.Game.1997.1080p.BluRay.DTS.DL.x264-HDC


Director.
David Fincher


Genre.
Action | Adventure | Mystery | Thriller


Tagline.
The Game...You Just Lost


Plot.
Wealthy financier Nicholas Van Orton gets a strange birthday present
from wayward brother Conrad: a live-action game that consumes his life.


General Information
RUNTIME................: 02h:08m:38s
SIZE...................: 10.8 GB
VIDEO.CODEC............: x264 [LVL4.1][DXVA]
FRAMERATE..............: 23.976 fps
BITRATE................: 9746 kbps [Source = 22830 kbps]
RESOLUTION.............: 1920x816 [AR 2.35:1]
AUDIO.1................: German 5.1 DTS @ 755 kbps
AUDIO.2................: English 5.1 DTS @ 1510 kbps
SUBTITLES..............: German Forced, German, English
CHAPTERS...............: Yes
SOURCE.................: The Game 1997 1080p BluRay VC-1 DTS-HD MA 5.1-BX
IMDB.RATING............: 7.7/10 73,172 votes
IMDB.LINK..............: [Link nur für registrierte und freigeschaltete Benutzer sichtbar]


x264 [info]: profile High, level 4.1

x264 [info]: frame I:1464 Avg QP:15.79 size:139095
x264 [info]: frame P:39181 Avg QP:18.06 size: 63623
x264 [info]: frame B:144410 Avg QP:18.78 size: 46444
x264 [info]: consecutive B-frames: 1.1% 1.9% 4.0% 15.7% 34.2% 43.1%
x264 [info]: SSIM Mean Y:0.9837852 (17.901db)

encoded 185055 frames, 3.03 fps, 9746.57 kb/s





Sprache: Dubs: German, English; Subs: German, English
Länge: 2h 8mn
Größe: 10.8 GiB (12x1000MiB Parts)
Gruppe: HDC
Quelle: BluRay


[Link nur für registrierte und freigeschaltete Benutzer sichtbar]

Enthaltene Dateien:

The.Game.1997.1080p.BluRay.DTS.DL.x264-HDC.mkv
The.Game.1997.1080p.BluRay.DTS.DL.x264-HDC.nfo

Download:

[Link nur für registrierte und freigeschaltete Benutzer sichtbar] The.Game.1997.1080p.BluRay.DTS.DL.x264-HDC ([Link nur für registrierte und freigeschaltete Benutzer sichtbar])

1fichier, MEGA, Share-Online, Uploaded