PDA

Archiv verlassen und diese Seite im Standarddesign anzeigen : The Frighteners 1996 1080p BluRay DTS DL x264 - HDC



Zarroc
17.07.14, 07:21
The.Frighteners.1996.1080p.BluRay.DTS.DL.x264-HDC

[Link nur für registrierte und freigeschaltete Benutzer sichtbar]


Frank Bannister (Michael J. Fox) hatte ein traumatisches Erlebnis und bekam anschließend die Fähigkeit, Geister zu sehen. Also nutzt er sein Können, indem er als Gespensterjäger unbescholtene Bürger vor übernatürlichen Erscheinungen bewahrt, die er zuvor selbst mit Hilfe einiger befreundeter Spukgestalten verursacht hat. Seine Waffen sind eine Weihwasserspritzpistole sowie eine Art Toaster - und für Einsätze nach Mitternacht berechnet er einen Zuschlag von 100 Dollar. Eines Tages bekommt er es allerdings mit dem tatsächlich bösen Geist eines Serienmörders zu tun. Auf der Stirn seines jeweils nächsten Opfers lässt dieser eine Zahl aufleuchten, die nur Frank sehen kann. Die Polizei ist hingegen bald davon überzeugt, dass Frank selbst der Mörder ist. Nur die hübsche junge Ärztin Lucy Linskey (Trini Alvarado), deren Mann nur wenige Stunden nach ihrer ersten Begegnung mit Frank ebenfalls dem bösen Geist zum Opfer gefallen war, glaubt felsenfest an seine Unschuld. Dann erscheint das Mal auch auf ihrer Stirn...

MediaInfo:

General
Unique ID : 210385801565563351959582707478588656249 (0x9E46D4DDE6066C19860E62CAF5398A79)
Complete name : The.Frighteners.1996.1080p.BluRay.DTS.DL.x264-HDC.mkv
Format : Matroska
Format version : Version 2
File size : 13.9 GiB
Duration : 1h 49mn
Overall bit rate : 18.2 Mbps
Encoded date : UTC 2011-12-16 22:33:17
Writing application : mkvmerge v5.0.0 ('Die Wahre Liebe') built on Sep 25 2011 20:33:49
Writing library : libebml v1.2.2 + libmatroska v1.3.0

Video
ID : 1
Format : AVC
Format/Info : Advanced Video Codec
Format profile : High@L4.1
Format settings, CABAC : Yes
Format settings, ReFrames : 5 frames
Codec ID : V_MPEG4/ISO/AVC
Duration : 1h 49mn
Bit rate : 15.9 Mbps
Width : 1 920 pixels
Height : 816 pixels
Display aspect ratio : 2.35:1
Frame rate mode : Constant
Frame rate : 23.976 fps
Color space : YUV
Chroma subsampling : 4:2:0
Bit depth : 8 bits
Scan type : Progressive
Bits/(Pixel*Frame) : 0.423
Stream size : 11.9 GiB (85%)
Writing library : x264 core 118 r2085 8a62835
Encoding settings : cabac=1 / ref=5 / deblock=1:-3:-3 / analyse=0x3:0x113 / me=umh / subme=9 / psy=1 / psy_rd=1.00:0.00 / mixed_ref=1 / me_range=32 / chroma_me=1 / trellis=2 / 8x8dct=1 / cqm=0 / deadzone=21,11 / fast_pskip=0 / chroma_qp_offset=-2 / threads=6 / sliced_threads=0 / nr=0 / decimate=0 / interlaced=0 / bluray_compat=0 / constrained_intra=0 / bframes=4 / b_pyramid=2 / b_adapt=2 / b_bias=0 / direct=3 / weightb=1 / open_gop=0 / weightp=2 / keyint=250 / keyint_min=23 / scenecut=40 / intra_refresh=0 / rc_lookahead=80 / rc=2pass / mbtree=1 / bitrate=15880 / ratetol=1.0 / qcomp=0.70 / qpmin=0 / qpmax=69 / qpstep=4 / cplxblur=20.0 / qblur=0.5 / ip_ratio=1.10 / aq=1:0.80
Language : English
Default : Yes
Forced : No

Audio #1
ID : 2
Format : DTS
Format/Info : Digital Theater Systems
Mode : 16
Format settings, Endianness : Big
Codec ID : A_DTS
Duration : 1h 49mn
Bit rate mode : Constant
Bit rate : 768 Kbps
Channel(s) : 6 channels
Channel positions : Front: L C R, Side: L R, LFE
Sampling rate : 48.0 KHz
Bit depth : 24 bits
Compression mode : Lossy
Stream size : 603 MiB (4%)
Title : German 5.1 DTS @ 768 kbps
Language : German
Default : Yes
Forced : No

Audio #2
ID : 3
Format : DTS
Format/Info : Digital Theater Systems
Mode : 16
Format settings, Endianness : Big
Codec ID : A_DTS
Duration : 1h 49mn
Bit rate mode : Constant
Bit rate : 1 509 Kbps
Channel(s) : 6 channels
Channel positions : Front: L C R, Side: L R, LFE
Sampling rate : 48.0 KHz
Bit depth : 24 bits
Compression mode : Lossy
Stream size : 1.16 GiB (8%)
Title : English 5.1 DTS @1509 kbps
Language : English
Default : No
Forced : No

Text #1
ID : 4
Format : VobSub
Muxing mode : zlib
Codec ID : S_VOBSUB
Codec ID/Info : The same subtitle format used on DVDs
Title : German forced
Language : German
Default : Yes
Forced : Yes

Text #2
ID : 5
Format : VobSub
Muxing mode : zlib
Codec ID : S_VOBSUB
Codec ID/Info : The same subtitle format used on DVDs
Language : German
Default : No
Forced : No

Menu
00:00:00.000 : de:Chapter 01
00:11:50.251 : de:Chapter 02
00:17:28.464 : de:Chapter 03
00:25:31.196 : de:Chapter 04
00:33:14.325 : de:Chapter 05
00:37:03.638 : de:Chapter 06
00:40:55.453 : de:Chapter 07
00:47:20.587 : de:Chapter 08
00:51:58.657 : de:Chapter 09
00:55:36.875 : de:Chapter 10
01:09:29.874 : de:Chapter 11
01:11:44.174 : de:Chapter 12
01:20:04.341 : de:Chapter 13
01:24:29.397 : de:Chapter 14
01:39:37.721 : de:Chapter 15
01:43:32.998 : de:Chapter 16
01:49:45.704 : de:Chapter 17



NFO:

HHHHHHHHH HHHHHHHHHDDDDDDDDDDDDD CCCCCCCCCCCCC
H:::::::H H:::::::HD::::::::::::DDD CCC::::::::::::C
H:::::::H H:::::::HD:::::::::::::::DD CC:::::::::::::::C
HH::::::H H::::::HHDDD:::::DDDDD:::::D C:::::CCCCCCCC::::C
H:::::H H:::::H D:::::D D:::::D C:::::C CCCCCC
H:::::H H:::::H D:::::D D:::::DC:::::C
H::::::HHHHH::::::H D:::::D D:::::DC:::::C
H:::::::::::::::::H D:::::D D:::::DC:::::C
H:::::::::::::::::H D:::::D D:::::DC:::::C
H::::::HHHHH::::::H D:::::D D:::::DC:::::C
H:::::H H:::::H D:::::D D:::::DC:::::C
H:::::H H:::::H D:::::D D:::::D C:::::C CCCCCC
HH::::::H H::::::HHDDD:::::DDDDD:::::D C:::::CCCCCCCC::::C
H:::::::H H:::::::HD:::::::::::::::DD CC:::::::::::::::C
H:::::::H H:::::::HD::::::::::::DDD CCC::::::::::::C
HHHHHHHHH HHHHHHHHHDDDDDDDDDDDDD CCCCCCCCCCCCC

--- What else ---
------------------------------------------------------------------


Proudly presents


The.Frighteners.1996.1080p.BluRay.DTS.DL.x264-HDC


Genre.
Comedy | Fantasy | Horror


Tagline.
Dead yet?


Plot.
After a car accident in which his wife, Debra, was killed and he was injured,
Frank Bannister develops psychic abilities allowing him to see...


General Information.
Release.Name.........: The.Frighteners.1996.1080p.BluRay.DTS.DL.x264-HDC
Release.Date ........: 17.12.2011
RUNTIME..............: 01h:49m:46s
SIZE.................: 13.9 GB
VIDEO CODEC..........: x264 [@LVL4.1][DXVA]
FRAMERATE............: 23.976 fps
BITRATE..............: 15880 kbps [Source 29990 kbps]
RESOLUTION...........: 1920x816
PRIMARY.AUDIO........: German 5.1 DTS @ 768 kbps
SECONDARY.AUDIO.1....: English 5.1 DTS @ 1509 kbps
SUBTITLES............: ger forced, ger
CHAPTERS.............: Yes like BluRay
SOURCE...............: The Frighteners 1996 1080p GER Blu-ray AVC DTS-HD MA 5.1
IMDB.RATING..........: 7.1/10 35.339 votes
IMDB.LINK............: [Link nur für registrierte und freigeschaltete Benutzer sichtbar]



x264 [info]: frame I:1233 Avg QP:16.86 size:180796
x264 [info]: frame P:38894 Avg QP:17.54 size:108273
x264 [info]: frame B:117778 Avg QP:18.72 size: 73347

x264 [info]: SSIM Mean Y:0.9784978

encoded 157905 frames, 1.45 fps, 15879.54 kb/s


Sprache: Dubs: German, English; Subs: German
Länge: 1h 49mn
Größe: 13.9 GiB (15x1000MiB Parts)
Gruppe: HDC
Quelle: BluRay


[Link nur für registrierte und freigeschaltete Benutzer sichtbar]

Enthaltene Dateien:

The.Frighteners.1996.1080p.BluRay.DTS.DL.x264-HDC.mkv
The.Frighteners.1996.1080p.BluRay.DTS.DL.x264-HDC.nfo

Download:

[Link nur für registrierte und freigeschaltete Benutzer sichtbar] The.Frighteners.1996.1080p.BluRay.DTS.DL.x264-HDC ([Link nur für registrierte und freigeschaltete Benutzer sichtbar])

1fichier, MEGA, Share-Online, Uploaded