PDA

Archiv verlassen und diese Seite im Standarddesign anzeigen : Faculty Trau keinem Lehrer The Faculty 1998 1080p BluRay DTS DL x264 - HDC



Zarroc
17.07.14, 07:19
The.Faculty.1998.1080p.BluRay.DTS.DL.x264-HDC
aka "Faculty - Trau keinem Lehrer"

[Link nur für registrierte und freigeschaltete Benutzer sichtbar]


Eine High School, wie es sie in jeder amerikanischen Kleinstadt gibt. Die Schüler spalten sich in kleine Grüppchen auf. Die Lehrer haben – abgesehen von wenigen Idealisten – die Lust an ihrem Beruf verloren und ihre Demotivation überträgt sich auf die Schüler. Urplötzlich beginnen jedoch die Lehrer sich seltsam zu verhalten, als seien sie von etwas besessen. Schon nach kurzer Zeit wirkt sich dieser Befall auch auf die Schüler aus. Das Trinkwasser scheint im Zusammenhang mit den mysteriösen Vorgänge eine entscheidende Rolle zu spielen. Eine sechsköpfige Gruppe von „Normalverbliebenen“ macht sich auf die Suche nach der Ursache und hegen schon bald einen furchtbaren Verdacht: Außerirdische haben die Kontrolle über die Schule übernommen. Die einzige Möglichkeit, diesem Spuk ein Ende zu bereiten, ist, den Anführer der Aliens unschädlich zu machen. Doch wie soll dieser gefunden werden?

MediaInfo:

General
Unique ID : 209979849000869773786778294892387644297 (0x9DF8A5DC2D0BB7368BAA64F5AE6C3389)
Complete name : The.Faculty.1998.1080p.BluRay.DTS.DL.x264-HDC.mkv
Format : Matroska
Format version : Version 2
File size : 11.8 GiB
Duration : 1h 46mn
Overall bit rate : 15.9 Mbps
Encoded date : UTC 2011-11-28 21:20:31
Writing application : mkvmerge v5.0.0 ('Die Wahre Liebe') built on Sep 25 2011 20:33:49
Writing library : libebml v1.2.2 + libmatroska v1.3.0

Video
ID : 1
Format : AVC
Format/Info : Advanced Video Codec
Format profile : [email protected]
Format settings, CABAC : Yes
Format settings, ReFrames : 4 frames
Codec ID : V_MPEG4/ISO/AVC
Duration : 1h 46mn
Bit rate : 14.6 Mbps
Width : 1 920 pixels
Height : 1 038 pixels
Display aspect ratio : 1.85:1
Frame rate mode : Constant
Frame rate : 23.976 fps
Color space : YUV
Chroma subsampling : 4:2:0
Bit depth : 8 bits
Scan type : Progressive
Bits/(Pixel*Frame) : 0.307
Stream size : 10.5 GiB (88%)
Writing library : x264 core 119 r2106 07efeb4
Encoding settings : cabac=1 / ref=4 / deblock=1:-3:-3 / analyse=0x3:0x113 / me=umh / subme=9 / psy=1 / psy_rd=1.00:0.00 / mixed_ref=1 / me_range=32 / chroma_me=1 / trellis=2 / 8x8dct=1 / cqm=0 / deadzone=21,11 / fast_pskip=0 / chroma_qp_offset=-2 / threads=6 / sliced_threads=0 / nr=0 / decimate=0 / interlaced=0 / bluray_compat=0 / constrained_intra=0 / bframes=3 / b_pyramid=2 / b_adapt=2 / b_bias=0 / direct=3 / weightb=1 / open_gop=0 / weightp=2 / keyint=250 / keyint_min=23 / scenecut=40 / intra_refresh=0 / rc_lookahead=80 / rc=2pass / mbtree=1 / bitrate=14650 / ratetol=1.0 / qcomp=0.70 / qpmin=0 / qpmax=69 / qpstep=4 / cplxblur=20.0 / qblur=0.5 / ip_ratio=1.40 / aq=1:0.80
Language : English
Default : Yes
Forced : No

Audio #1
ID : 2
Format : DTS
Format/Info : Digital Theater Systems
Mode : 16
Format settings, Endianness : Big
Codec ID : A_DTS
Duration : 1h 46mn
Bit rate mode : Constant
Bit rate : 768 Kbps
Channel(s) : 6 channels
Channel positions : Front: L C R, Side: L R, LFE
Sampling rate : 48.0 KHz
Bit depth : 24 bits
Compression mode : Lossy
Stream size : 585 MiB (5%)
Title : German 5.1 DTS @ 768 kbps
Language : German
Default : Yes
Forced : No

Audio #2
ID : 3
Format : DTS
Format/Info : Digital Theater Systems
Mode : 16
Format settings, Endianness : Big
Codec ID : A_DTS
Duration : 1h 46mn
Bit rate mode : Constant
Bit rate : 768 Kbps
Channel(s) : 6 channels
Channel positions : Front: L C R, Side: L R, LFE
Sampling rate : 48.0 KHz
Bit depth : 24 bits
Compression mode : Lossy
Stream size : 585 MiB (5%)
Title : English 5.1 DTS @ 768 kbps
Language : English
Default : No
Forced : No

Text #1
ID : 4
Format : VobSub
Muxing mode : zlib
Codec ID : S_VOBSUB
Codec ID/Info : The same subtitle format used on DVDs
Title : german
Language : German
Default : Yes
Forced : No

Text #2
ID : 5
Format : VobSub
Muxing mode : zlib
Codec ID : S_VOBSUB
Codec ID/Info : The same subtitle format used on DVDs
Title : english
Language : English
Default : No
Forced : No

Menu
00:00:00.000 : :00:00:00.000
00:01:51.486 : :00:01:51.486
00:04:05.412 : :00:04:05.412
00:07:53.431 : :00:07:53.431
00:11:48.374 : :00:11:48.374
00:13:41.320 : :00:13:41.320
00:16:50.176 : :00:16:50.176
00:19:39.929 : :00:19:39.929
00:23:52.389 : :00:23:52.389
00:27:53.338 : :00:27:53.338
00:32:12.222 : :00:32:12.222
00:34:34.948 : :00:34:34.948
00:37:53.688 : :00:37:53.688
00:40:23.546 : :00:40:23.546
00:42:40.808 : :00:42:40.808
00:45:16.172 : :00:45:16.172
00:49:52.239 : :00:49:52.239
00:53:17.194 : :00:53:17.194
00:57:59.184 : :00:57:59.184
01:00:39.261 : :01:00:39.261
01:06:12.260 : :01:06:12.260
01:10:17.380 : :01:10:17.380
01:14:24.293 : :01:14:24.293
01:17:26.183 : :01:17:26.183
01:21:03.400 : :01:21:03.400
01:23:43.518 : :01:23:43.518
01:26:02.532 : :01:26:02.532
01:29:00.919 : :01:29:00.919
01:32:17.574 : :01:32:17.574
01:37:13.786 : :01:37:13.786
01:39:17.160 : :01:39:17.160



NFO:

HHHHHHHHH HHHHHHHHHDDDDDDDDDDDDD CCCCCCCCCCCCC
H:::::::H H:::::::HD::::::::::::DDD CCC::::::::::::C
H:::::::H H:::::::HD:::::::::::::::DD CC:::::::::::::::C
HH::::::H H::::::HHDDD:::::DDDDD:::::D C:::::CCCCCCCC::::C
H:::::H H:::::H D:::::D D:::::D C:::::C CCCCCC
H:::::H H:::::H D:::::D D:::::DC:::::C
H::::::HHHHH::::::H D:::::D D:::::DC:::::C
H:::::::::::::::::H D:::::D D:::::DC:::::C
H:::::::::::::::::H D:::::D D:::::DC:::::C
H::::::HHHHH::::::H D:::::D D:::::DC:::::C
H:::::H H:::::H D:::::D D:::::DC:::::C
H:::::H H:::::H D:::::D D:::::D C:::::C CCCCCC
HH::::::H H::::::HHDDD:::::DDDDD:::::D C:::::CCCCCCCC::::C
H:::::::H H:::::::HD:::::::::::::::DD CC:::::::::::::::C
H:::::::H H:::::::HD::::::::::::DDD CCC::::::::::::C
HHHHHHHHH HHHHHHHHHDDDDDDDDDDDDD CCCCCCCCCCCCC

--- What else ---
------------------------------------------------------------------


Proudly presents


The.Faculty.1998.1080p.BluRay.DTS.DL.x264-HDC


Genre.
Horror | Mystery | Sci-Fi | Thriller


Tagline.
The new science fiction thriller - From the director of Desperado & From Dusk till Dawn
- From the writer of Scream & Scream 2


Plot.
A horror tale set in a High School where the students suspect the teaching
staff of being aliens, who are intent on making the students their victims.


General Information.
Release.Name.........: The.Faculty.1998.1080p.BluRay.DTS.DL.x264-HDC
Release.Date ........: 28.11.2011
RUNTIME..............: 01h:46m:30s
SIZE.................: 11.8 GB
VIDEO CODEC..........: x264 [@LVL4.1][DXVA]
FRAMERATE............: 23.976 fps
BITRATE..............: 14650 kbps [Source 29099 kbps]
RESOLUTION...........: 1920x1038
PRIMARY.AUDIO........: German 5.1 DTS @ 768 kbps
SECONDARY.AUDIO.1....: English 5.1 DTS @ 768 kbps
SUBTITLES............: ger, eng
CHAPTERS.............: Yes like BluRay
SOURCE...............: The Faculty 1998 1080p GER Blu-ray AVC DTS-HD MA 5.1
IMDB.RATING..........: 6.3/10 45.471 votes
IMDB.LINK............: [Link nur für registrierte und freigeschaltete Benutzer sichtbar]



x264 [info]: frame I:1462 Avg QP:14.80 size:202159
x264 [info]: frame P:43760 Avg QP:17.10 size:104084
x264 [info]: frame B:105095 Avg QP:18.22 size: 63089

x264 [info]: SSIM Mean Y:0.9818261

encoded 150317 frames, 1.53 fps, 14649.59 kb/s


Sprache: Dubs: German, English; Subs: German, English
Länge: 1h 46mn
Größe: 11.8 GiB (13x1000MiB Parts)
Gruppe: HDC
Quelle: BluRay


[Link nur für registrierte und freigeschaltete Benutzer sichtbar]

Enthaltene Dateien:

The.Faculty.1998.1080p.BluRay.DTS.DL.x264-HDC.mkv
The.Faculty.1998.1080p.BluRay.DTS.DL.x264-HDC.nfo

Download:

[Link nur für registrierte und freigeschaltete Benutzer sichtbar] The.Faculty.1998.1080p.BluRay.DTS.DL.x264-HDC ([Link nur für registrierte und freigeschaltete Benutzer sichtbar])

1fichier, MEGA, Share-Online, Uploaded