PDA

Archiv verlassen und diese Seite im Standarddesign anzeigen : The Cell 2000 1080p BluRay AC3D DTS DL x264 - HDC



Zarroc
17.07.14, 07:11
The.Cell.2000.1080p.BluRay.AC3D.DTS.DL.x264-HDC

[Link nur für registrierte und freigeschaltete Benutzer sichtbar]


Carl Stargher (Vincent D'Onofrio), ein psychisch gestörter Serienkiller, bringt seine Opfer auf grausame Art und Weise um. Als FBI-Agent Peter Novak (Vince Vaughn) den Psychopathen endlich aufspürt, liegt dieser leider im Koma. Novak weiß, dass er schnell das Versteck finden muss, in dem Starghers letztes Opfer Todesqualen leidet. Denn innerhalb von 40 Stunden wird ein Mechanismus dafür sorgen, dass die eingesperrte Frau stirbt. Da kann ihm nur noch die Psychologin Catherine Deane (Jennifer Lopez) helfen, die durch eine experimentelle Technik in das Unterbewusstsein von Komapatienten eindringen kann. Eine gefährliche Reise in das Innere eines Mörders beginnt, dessen gewalttätige Gedankenwelt die Psychologin zu übermannen droht. Ihre Chancen, unversehrt aus Carl Starghers Kopf herauszukommen, sind sehr gering.

MediaInfo:

General
Unique ID : 211296578378069040061097086304206057578 (0x9EF63DA16E49F8ACAAE8B9D3D395F06A)
Complete name : The.Cell.2000.1080p.BluRay.AC3D.DTS.DL.x264-HDC.mkv
Format : Matroska
Format version : Version 2
File size : 8.59 GiB
Duration : 1h 47mn
Overall bit rate : 11.5 Mbps
Movie name : The Cell 2000 - HDC
Encoded date : UTC 2009-08-09 20:50:26
Writing application : mkvmerge v2.9.7 ('Tenderness') built on Jul 1 2009 18:43:35
Writing library : libebml v0.7.7 + libmatroska v0.8.1

Video
ID : 1
Format : AVC
Format/Info : Advanced Video Codec
Format profile : [email protected]
Format settings, CABAC : Yes
Format settings, ReFrames : 5 frames
Codec ID : V_MPEG4/ISO/AVC
Duration : 1h 47mn
Bit rate : 9 584 Kbps
Width : 1 920 pixels
Height : 800 pixels
Display aspect ratio : 2.40:1
Frame rate mode : Constant
Frame rate : 23.976 fps
Color space : YUV
Chroma subsampling : 4:2:0
Bit depth : 8 bits
Scan type : Progressive
Bits/(Pixel*Frame) : 0.260
Stream size : 7.00 GiB (82%)
Writing library : x264 core 68 r1195M 5d75a9b
Encoding settings : cabac=1 / ref=5 / deblock=1:-3:-4 / analyse=0x3:0x113 / me=esa / subme=9 / psy_rd=1.3:0.0 / mixed_ref=1 / me_range=24 / chroma_me=1 / trellis=2 / 8x8dct=1 / cqm=0 / deadzone=21,11 / chroma_qp_offset=-2 / threads=12 / nr=0 / decimate=0 / mbaff=0 / bframes=5 / b_pyramid=1 / b_adapt=2 / b_bias=0 / direct=3 / wpredb=1 / keyint=250 / keyint_min=25 / scenecut=40 / rc=2pass / bitrate=9584 / ratetol=1.0 / qcomp=0.70 / qpmin=10 / qpmax=51 / qpstep=4 / cplxblur=20.0 / qblur=0.5 / vbv_maxrate=50000 / vbv_bufsize=50000 / ip_ratio=1.30 / pb_ratio=1.20 / aq=1:0.80
Language : English
Default : Yes
Forced : No

Audio #1
ID : 2
Format : AC-3
Format/Info : Audio Coding 3
Mode extension : CM (complete main)
Format settings, Endianness : Big
Codec ID : A_AC3
Duration : 1h 47mn
Bit rate mode : Constant
Bit rate : 384 Kbps
Channel(s) : 6 channels
Channel positions : Front: L C R, Side: L R, LFE
Sampling rate : 48.0 KHz
Bit depth : 16 bits
Compression mode : Lossy
Stream size : 294 MiB (3%)
Title : German AC3D 5.1 @ 384 kbps
Language : German
Default : Yes
Forced : No

Audio #2
ID : 3
Format : DTS
Format/Info : Digital Theater Systems
Mode : 16
Format settings, Endianness : Big
Codec ID : A_DTS
Duration : 1h 47mn
Bit rate mode : Constant
Bit rate : 1 509 Kbps
Channel(s) : 6 channels
Channel positions : Front: L C R, Side: L R, LFE
Sampling rate : 48.0 KHz
Bit depth : 24 bits
Compression mode : Lossy
Stream size : 1.13 GiB (13%)
Title : English DTS 5.1 @ 1.536 kbps (core of DTS-MA)
Language : English
Default : No
Forced : No

Text #1
ID : 4
Format : UTF-8
Codec ID : S_TEXT/UTF8
Codec ID/Info : UTF-8 Plain Text
Title : English
Language : English
Default : Yes
Forced : No

Text #2
ID : 5
Format : UTF-8
Codec ID : S_TEXT/UTF8
Codec ID/Info : UTF-8 Plain Text
Title : Polish
Language : Polish
Default : No
Forced : No

Text #3
ID : 6
Format : UTF-8
Codec ID : S_TEXT/UTF8
Codec ID/Info : UTF-8 Plain Text
Title : Czech
Language : Czech
Default : No
Forced : No

Text #4
ID : 7
Format : UTF-8
Codec ID : S_TEXT/UTF8
Codec ID/Info : UTF-8 Plain Text
Title : Romanian
Language : Romanian
Default : No
Forced : No

Text #5
ID : 8
Format : UTF-8
Codec ID : S_TEXT/UTF8
Codec ID/Info : UTF-8 Plain Text
Title : Hungarian
Language : Hungarian
Default : No
Forced : No

Menu
00:00:00.000 : :00:00:00.000
00:06:40.233 : :00:06:40.233
00:12:44.764 : :00:12:44.764
00:18:29.108 : :00:18:29.108
00:26:28.587 : :00:26:28.587
00:34:32.904 : :00:34:32.904
00:40:10.325 : :00:40:10.325
00:47:55.873 : :00:47:55.873
00:56:04.736 : :00:56:04.736
01:01:30.687 : :01:01:30.687
01:07:47.063 : :01:07:47.063
01:14:23.459 : :01:14:23.459
01:21:51.532 : :01:21:51.532
01:26:14.169 : :01:26:14.169
01:32:09.733 : :01:32:09.733
01:42:34.148 : :01:42:34.148



NFO:

HHHHHHHHH HHHHHHHHHDDDDDDDDDDDDD CCCCCCCCCCCCC
H:::::::H H:::::::HD::::::::::::DDD CCC::::::::::::C
H:::::::H H:::::::HD:::::::::::::::DD CC:::::::::::::::C
HH::::::H H::::::HHDDD:::::DDDDD:::::D C:::::CCCCCCCC::::C
H:::::H H:::::H D:::::D D:::::D C:::::C CCCCCC
H:::::H H:::::H D:::::D D:::::DC:::::C
H::::::HHHHH::::::H D:::::D D:::::DC:::::C
H:::::::::::::::::H D:::::D D:::::DC:::::C
H:::::::::::::::::H D:::::D D:::::DC:::::C
H::::::HHHHH::::::H D:::::D D:::::DC:::::C
H:::::H H:::::H D:::::D D:::::DC:::::C
H:::::H H:::::H D:::::D D:::::D C:::::C CCCCCC
HH::::::H H::::::HHDDD:::::DDDDD:::::D C:::::CCCCCCCC::::C
H:::::::H H:::::::HD:::::::::::::::DD CC:::::::::::::::C
H:::::::H H:::::::HD::::::::::::DDD CCC::::::::::::C
HHHHHHHHH HHHHHHHHHDDDDDDDDDDDDD CCCCCCCCCCCCC

--- What else ---
------------------------------------------------------------------


Proudly presents


The.Cell.2000.1080p.BluRay.AC3D.DTS.DL.x264-HDC


Genre.
Crime | Drama | Fantasy | Horror | Sci-Fi | Thriller


Tagline.
This Summer... Enter The Mind Of A Killer


Plot.
A psychotherapist journeys inside a comatose serial killer in the
hopes of saving his latest victim.


General Information
Release Name..: The.Cell.2000.1080p.BluRay.AC3D.DTS.DL.x264-HDC
Release Date..: 11.08.2009
Runtime.......: 01h:47m:10s
Size..........: 8.59 GB
Video Codec...: x264 [LVL4.1][DXVA]
Framerate.....: 23.976 fps
Bitrate.......: 9.583kbps
Resolution....: 1920x800 [AR 2.40:1]
Audio 1.......: German 5.1 AC3D @ 384 kbps thx 2 st0ni
Audio 2.......: English 5.1 DTS @ 1.536 kbps (core of DTS-MA)
Chapters......: YES like BluRay
Subtitles.....: English, Polish, Czech, Romanian, Hungarian
Source........: BluRay AVC ~ 14.65 Mbps thx 2 [email protected]
Encoder .....: iwok
IMDB Rating...: 6.2/10 [33.347 votes]
IMDB Link.....: [Link nur für registrierte und freigeschaltete Benutzer sichtbar]

x264 [info]: profile High, level 4.1
x264 [info]: slice I:2343 Avg QP:15.84 size:142791
x264 [info]: slice P:50130 Avg QP:16.88 size: 72544
x264 [info]: slice B:101695 Avg QP:18.42 size: 36692

encoded 154168 frames, 3.65 fps, 9583.20 kb/s


//Notes//

Playable on / Ps3 / TViX / Popcornhour / WD HD Player







Sprache: Dubs: German, English; Subs: English, Polish, Czech, Romanian, Hungarian
Länge: 1h 47mn
Größe: 8.59 GiB (10x1000MiB Parts)
Gruppe: HDC
Quelle: BluRay


[Link nur für registrierte und freigeschaltete Benutzer sichtbar]

Enthaltene Dateien:

The.Cell.2000.1080p.BluRay.AC3D.DTS.DL.x264-HDC.mkv
The.Cell.2000.1080p.BluRay.AC3D.DTS.DL.x264-HDC.nfo

Download:

[Link nur für registrierte und freigeschaltete Benutzer sichtbar] The.Cell.2000.1080p.BluRay.AC3D.DTS.DL.x264-HDC ([Link nur für registrierte und freigeschaltete Benutzer sichtbar])

1fichier, MEGA, Share-Online, Uploaded